Resultados 1 al 2 de 2

Tema: Divergente (2014) [BDrip m720p][Castellano/Ingles AC3 5.1][Subs][Acción-CF]

  1. #1
    Ladrón de bytes Avatar de mauricio2050
    Pais
    Afganistan
    Bandera
    Ingreso
    May 2013
    Género
    Agradecer
    0
    Agrad. 12 veces en 12 posteos

    Video Divergente (2014) [BDrip m720p][Castellano/Ingles AC3 5.1][Subs][Acción-CF]





    Divergente es un thriller de acción fascinante ambientado en un mundo futurista donde la sociedad está dividida en cinco facciones. Tris Prior (Shailene Woodley) escoge Osadía - atrevidos y arriesgados que persiguen la valentía por encima de todas las cosas. Durante la iniciación de la Osadía, Tris completa ejercicios acrobáticos, desafiando a la muerte, mientras se enfrenta a sus miedos más profundos en simulaciones espectaculares. Cuando descubre que es una Divergente, alguien que nunca encajaría en ninguna facción, le advierten que debe guardar el secreto si no quiere arriesgar su vida. Cuando Tris descubra que una guerra se avecina, la cual amenaza a su familia y la vida del misterioso líder de Osadía, de quien llega a enamorarse, Tris deberá afrontar su mayor prueba hasta ahora - y es que revelar que es una Divergente puede salvar el mundo... o destruirlo.



    Título: Divergente
    Título original: Divergent
    País: USA
    Estreno en USA: 21/03/2014
    Estreno en España: 30/04/2014
    Lanzamiento en DVD (alquiler): 03/09/2014
    Estreno en DVD (venta): 03/09/2014
    Estreno en Blu-ray: 03/09/2014
    Productora: Summit Entertainment, Lionsgate
    Director: Neil Burger
    Guión: Neil Burger, Veronica Roth, Vanessa Taylor
    Reparto: Kate Winslet, Shailene Woodley, Ashley Judd, Zoë Kravitz, Tony Goldwyn, Theo James, Ansel Elgort, Jai Courtney, Ray Stevenson, Miles Teller, Maggie Q, Mekhi Phifer, Christian Madsen, Ben Lloyd-Hughes, Justine Wachsberger
    Género: Ciencia ficción. Acción. Aventuras. Romance

    Formato: Matroska m720p
    Tamaño: 3.70 Gb
    Bit rate: 3 792 Kbps
    Resolución: 1280x528
    Audio 1: AC3 5.1 640 Kbps Castellano
    Audio 2: AC3 5.1 448 kbps Inglés
    Subs: Español e Ingles + Forzados

    Mediainfo

    Código:
    Format                                   : Matroska
    Format version                           : Version 2
    File size                                : 3.70 GiB
    Duration                                 : 2h 19mn
    Overall bit rate                         : 3 792 Kbps
    Encoded date                             : UTC 2014-09-01 19:03:54
    Writing application                      : mkvmerge v5.3.0 ('I could have danced') built on Feb  9 2012 10:38:07
    Writing library                          : libebml v1.2.3 + libmatroska v1.3.0
    
    Video
    ID                                       : 1
    Format                                   : AVC
    Format/Info                              : Advanced Video Codec
    Format profile                           : High@L3.1
    Format settings, CABAC                   : Yes
    Format settings, ReFrames                : 4 frames
    Codec ID                                 : V_MPEG4/ISO/AVC
    Duration                                 : 2h 19mn
    Bit rate                                 : 2 703 Kbps
    Width                                    : 1 280 pixels
    Height                                   : 528 pixels
    Display aspect ratio                     : 2.40:1
    Frame rate mode                          : Constant
    Frame rate                               : 23.976 fps
    Color space                              : YUV
    Chroma subsampling                       : 4:2:0
    Bit depth                                : 8 bits
    Scan type                                : Progressive
    Bits/(Pixel*Frame)                       : 0.167
    Stream size                              : 2.56 GiB (69%)
    Writing library                          : x264 core 130 r2273 b3065e6
    Language                                 : Spanish
    Default                                  : Yes
    Forced                                   : No
    Color primaries                          : BT.709
    Transfer characteristics                 : BT.709
    Matrix coefficients                      : BT.709
    
    Audio #1
    ID                                       : 2
    Format                                   : AC-3
    Format/Info                              : Audio Coding 3
    Mode extension                           : CM (complete main)
    Format settings, Endianness              : Big
    Codec ID                                 : A_AC3
    Duration                                 : 2h 19mn
    Bit rate mode                            : Constant
    Bit rate                                 : 640 Kbps
    Channel(s)                               : 6 channels
    Channel positions                        : Front: L C R, Side: L R, LFE
    Sampling rate                            : 48.0 KHz
    Bit depth                                : 16 bits
    Compression mode                         : Lossy
    Stream size                              : 639 MiB (17%)
    Language                                 : Spanish
    Default                                  : Yes
    Forced                                   : No
    
    Audio #2
    ID                                       : 3
    Format                                   : AC-3
    Format/Info                              : Audio Coding 3
    Mode extension                           : CM (complete main)
    Format settings, Endianness              : Big
    Codec ID                                 : A_AC3
    Duration                                 : 2h 19mn
    Bit rate mode                            : Constant
    Bit rate                                 : 448 Kbps
    Channel(s)                               : 6 channels
    Channel positions                        : Front: L C R, Side: L R, LFE
    Sampling rate                            : 48.0 KHz
    Bit depth                                : 16 bits
    Compression mode                         : Lossy
    Stream size                              : 448 MiB (12%)
    Language                                 : English
    Default                                  : No
    Forced                                   : No
    
    Text #1
    ID                                       : 4
    Format                                   : UTF-8
    Codec ID                                 : S_TEXT/UTF8
    Codec ID/Info                            : UTF-8 Plain Text
    Language                                 : Spanish
    Default                                  : Yes
    Forced                                   : Yes
    
    Text #2
    ID                                       : 5
    Format                                   : UTF-8
    Codec ID                                 : S_TEXT/UTF8
    Codec ID/Info                            : UTF-8 Plain Text
    Language                                 : Spanish
    Default                                  : No
    Forced                                   : No
    
    Text #3
    ID                                       : 6
    Format                                   : UTF-8
    Codec ID                                 : S_TEXT/UTF8
    Codec ID/Info                            : UTF-8 Plain Text
    Language                                 : English
    Default                                  : No
    Forced                                   : No
    
    Menu
    00:00:00.000                             : en:Chapter 1
    00:07:57.477                             : en:Chapter 2
    00:15:29.595                             : en:Chapter 3
    00:23:31.034                             : en:Chapter 4
    00:33:56.743                             : en:Chapter 5
    00:38:52.955                             : en:Chapter 6
    00:44:24.328                             : en:Chapter 7
    00:53:37.631                             : en:Chapter 8
    01:00:02.682                             : en:Chapter 9
    01:06:32.071                             : en:Chapter 10
    01:13:19.603                             : en:Chapter 11
    01:20:08.136                             : en:Chapter 12
    01:28:41.441                             : en:Chapter 13
    01:35:54.957                             : en:Chapter 14
    01:46:19.373                             : en:Chapter 15
    01:57:54.692                             : en:Chapter 16






    1 Link y links Intercambiables




    BORRADO. ENLACES CAÍDOS.
    Enlaces caídos. Tema movido a Links Rotos / Post en Corrección.

    Última edición por Luisfecab; 31 08 2017 a las 12:39 PM Razón: Enlaces caídos.

  2. El siguiente usuario agradeció a mauricio2050 por este aporte:

    vladi99 (01 09 2014)

  3. #2
    Maestro Alquimista Avatar de Luisfecab
    Pais
    Colombia
    Bandera
    Ingreso
    Oct 2008
    Ubicación
    Cota
    Género
    Agradecer
    13,054
    Agrad. 4,595 veces en 2,107 posteos

    Re: Divergente (2014) [BDrip m720p][Castellano/Ingles AC3 5.1][Subs][Acción-CF]

    Enlaces caídos. Tema movido a Links Rotos / Post en Corrección.

    Reglamento del Foro / Activar Notificación


    "Si tienes el conocimiento; tienes la ventaja....."



Etiquetas para este tema

Permisos de publicación

  • No puedes crear nuevos temas
  • No puedes responder temas
  • No puedes subir archivos adjuntos
  • No puedes editar tus mensajes
  •