Gira en torno a una mujer que, tras ser despedida y pillar a su marido con otra, decide hacer aquello que hacen los norteamericanos cuando no tienen nada que hacer, salir a la carretera sin rumbo definido con el fin de autodescubrirse en un viaje para el que tendrá la compañía de su alcohólica, malhablada y diabética abuela.




Título: Tammy
Título original: Tammy
País: USA
Estreno en USA: 02/07/2014
Estreno en España:
Lanzamiento en DVD (alquiler): 11/11/2014
Productora: New Line Cinema
Director: Melissa McCarthy, Ben Falcone
Guión: Melissa McCarthy, Ben Falcone
Reparto: Melissa McCarthy, Susan Sarandon, Allison Janney, Gary Cole, Mark Duplass, Toni Collette, Nat Faxon, Dan Aykroyd, Kathy Bates

Calidad de Video: BDRip m1080p By XKlusiveDD®
Calidad de Audio: Castellano AC3 2.0 384kbps By XKlusiveDD®
Tamaño: 3.5 GB

PREESTRENO NO ESTRENADA AUN EN CINES

MEDIA INFO

Código:
Format                                   : Matroska
Format version                           : Version 2
File size                                : 3.77 GiB
Duration                                 : 1h 36mn
Overall bit rate                         : 5 574 Kbps
Encoded date                             : UTC 2014-10-27 14:22:15
Writing application                      : mkvmerge v3.4.0 ('Rapunzel') built on May 15 2010 09:38:20
Writing library                          : libebml v0.8.0 + libmatroska v0.9.0

Video
ID                                       : 1
Format                                   : AVC
Format/Info                              : Advanced Video Codec
Format profile                           : Baseline@L4.0
Format settings, CABAC                   : No
Format settings, ReFrames                : 1 frame
Format settings, GOP                     : M=1, N=12
Codec ID                                 : V_MPEG4/ISO/AVC
Duration                                 : 1h 36mn
Bit rate                                 : 4 695 Kbps
Width                                    : 1 920 pixels
Height                                   : 1 080 pixels
Display aspect ratio                     : 16:9
Frame rate mode                          : Variable
Frame rate                               : 23.976 fps
Color space                              : YUV
Chroma subsampling                       : 4:2:0
Bit depth                                : 8 bits
Scan type                                : Progressive
Bits/(Pixel*Frame)                       : 0.094
Stream size                              : 3.17 GiB (84%)
Language                                 : English

Audio #1
ID                                       : 2
Format                                   : AC-3
Format/Info                              : Audio Coding 3
Mode extension                           : CM (complete main)
Codec ID                                 : A_AC3
Duration                                 : 1h 36mn
Bit rate mode                            : Constant
Bit rate                                 : 384 Kbps
Channel(s)                               : 2 channels
Channel positions                        : Front: L R
Sampling rate                            : 48.0 KHz
Bit depth                                : 16 bits
Compression mode                         : Lossy
Stream size                              : 266 MiB (7%)
Language                                 : Spanish

Audio #2
ID                                       : 3
Format                                   : AC-3
Format/Info                              : Audio Coding 3
Mode extension                           : CM (complete main)
Codec ID                                 : A_AC3
Duration                                 : 1h 36mn
Bit rate mode                            : Constant
Bit rate                                 : 384 Kbps
Channel(s)                               : 6 channels
Channel positions                        : Front: L C R, Side: L R, LFE
Sampling rate                            : 48.0 KHz
Bit depth                                : 16 bits
Compression mode                         : Lossy
Stream size                              : 266 MiB (7%)
Language                                 : English

Text #1
ID                                       : 4
Format                                   : UTF-8
Codec ID                                 : S_TEXT/UTF8
Codec ID/Info                            : UTF-8 Plain Text
Language                                 : Spanish

Text #2
ID                                       : 5
Format                                   : UTF-8
Codec ID                                 : S_TEXT/UTF8
Codec ID/Info                            : UTF-8 Plain Text
Language                                 : English

Menu
00:00:00.000                             : en:1.
00:13:15.000                             : en:2.
00:23:37.000                             : en:3.
00:34:53.000                             : en:4.
00:44:04.000                             : en:5.
00:54:07.000                             : en:6.
01:03:08.000                             : en:7.
01:12:22.000                             : en:8.
01:22:03.000                             : en:9.
01:31:26.000                             : en:10.












1 Link



Código:
http://uploaded.net/file/2447kgjr/T4mm1.BDR.m1080p.flash.rar

Links Por Partes



Código:
http://uploaded.net/file/bh5qsizr/T4mm1.BDR.m1080p-flash.part1.rar
http://uploaded.net/file/1cl8ynic/T4mm1.BDR.m1080p-flash.part2.rar
http://uploaded.net/file/qeczsbyk/T4mm1.BDR.m1080p-flash.part3.rar
http://uploaded.net/file/rua43ur2/T4mm1.BDR.m1080p-flash.part4.rar
http://uploaded.net/file/tf028ivx/T4mm1.BDR.m1080p-flash.part5.rar

Mixto - Uptobox, 1Fichier (Uploaded 100 MB Aproximadamente)




Código:
http://uptobox.com/727q3mdvzu1z
http://uptobox.com/4zjbxuiq4mbi
http://uptobox.com/3o69zsj2zwub
http://uptobox.com/wny3rvy7ywkw
http://uploaded.net/file/tf028ivx/T4mm1.BDR.m1080p-flash.part5.rar




Código:
http://3aqlbrdehq.1fichier.com/
http://zi51334aw5.1fichier.com/
http://ntcwlg28si.1fichier.com/
http://ftz0af3sxl.1fichier.com/
http://uploaded.net/file/tf028ivx/T4mm1.BDR.m1080p-flash.part5.rar