Resultados 1 al 3 de 3

Tema: Nicky, la aprendiz de bruja (2014) [DVDRip] [Castellano AC3 5.1]

  1. #1
    Pequeño Hacker Avatar de Mrsherlock
    Pais
    Colombia
    Bandera
    Ingreso
    Jun 2014
    Género
    Agradecer
    0
    Agrad. 33 veces en 30 posteos

    Video Nicky, la aprendiz de bruja (2014) [DVDRip] [Castellano AC3 5.1]






    Como manda la tradición de las brujas, al cumplir los 13 años Nicky se ve obligada a abandonar su hogar durante un año entero para desarrollar al completo sus poderes y aprender a usarlos para ayudar a los demás. Montada en su escoba voladora y acompañada por su fiel gato Jiji, Nicky pondrá rumbo a Koriko, un pequeño pueblo costero donde vivirá increíbles aventuras y hará grandes amistades, pero también tendrá que hacer frente a las dificultades de ser una bruja y tener poderes que la hacen diferente del resto de personas.




    Título original: Majo no takkyûbin (Kiki's Delivery Service)
    Año: 2014
    Duración: 108 min.
    País: [Japón] Japón
    Director: Takashi Shimizu
    Guión: Novela: Kadono Eiko
    Música: Tarô Iwashiro
    Fotografía: Sôhei Tanikawa
    Reparto: Koshiba Fuka, Machiko Ono, Rie Miyazawa, Tadanobu Asano, Michitaka Tsutsui, Hiroshi Yamamoto, Miki Hayashida, Ryohei Hirota, Miho Kanazawa
    Productora: Being / D.N. Dream Partners / EDKO Film
    Género: Fantástico. Aventuras | Brujería

    Calidad de Video: DVDRip XviD
    calidad de Audio: Castellano Ac3 5.1
    Tamaño: 1.3 GB












    1 Link



    Código:
    http://uploaded.net/file/v0pg4qq7/N1cky.DVDR.flash.rar

    Links Por Partes



    Código:
    http://uploaded.net/file/cp25g1sw/N1cky.DVDR-flash.part1.rar
    http://uploaded.net/file/qewodotf/N1cky.DVDR-flash.part2.rar
    http://uploaded.net/file/0sz08mex/N1cky.DVDR-flash.part3.rar

    Mixto - Uptobox, 1Fichier (Uploaded 100 MB Aproximadamente)




    Código:
    http://uptobox.com/u5m0voycst1y
    http://uptobox.com/im93wdkitfvj
    http://uploaded.net/file/0sz08mex/N1cky.DVDR-flash.part3.rar




    Código:
    http://d235z7yhv9.1fichier.com/
    http://kxn09qiw1s.1fichier.com/
    http://uploaded.net/file/0sz08mex/N1cky.DVDR-flash.part3.rar

  2. #2
    Pequeño Hacker Avatar de Mrsherlock
    Pais
    Colombia
    Bandera
    Ingreso
    Jun 2014
    Género
    Agradecer
    0
    Agrad. 33 veces en 30 posteos

    Video Nicky, la aprendiz de bruja (2014) [HDRip] [Castellano AC3 5.1]






    Como manda la tradición de las brujas, al cumplir los 13 años Nicky se ve obligada a abandonar su hogar durante un año entero para desarrollar al completo sus poderes y aprender a usarlos para ayudar a los demás. Montada en su escoba voladora y acompañada por su fiel gato Jiji, Nicky pondrá rumbo a Koriko, un pequeño pueblo costero donde vivirá increíbles aventuras y hará grandes amistades, pero también tendrá que hacer frente a las dificultades de ser una bruja y tener poderes que la hacen diferente del resto de personas.




    Título original: Majo no takkyûbin (Kiki's Delivery Service)
    Año: 2014
    Duración: 108 min.
    País: [Japón] Japón
    Director: Takashi Shimizu
    Guión: Novela: Kadono Eiko
    Música: Tarô Iwashiro
    Fotografía: Sôhei Tanikawa
    Reparto: Koshiba Fuka, Machiko Ono, Rie Miyazawa, Tadanobu Asano, Michitaka Tsutsui, Hiroshi Yamamoto, Miki Hayashida, Ryohei Hirota, Miho Kanazawa
    Productora: Being / D.N. Dream Partners / EDKO Film
    Género: Fantástico. Aventuras | Brujería

    Calidad de Video: HDRip XviD
    Calidad de Audio: Castellano Ac3 5.1
    Tamaño: 1.6 GB












    1 Link



    Código:
    http://uploaded.net/file/mavkaymj/N1cky.HDR.flash.rar

    Links Por Partes



    Código:
    http://uploaded.net/file/6qgs6wpv/N1cky.HDR-flash.part1.rar
    http://uploaded.net/file/iw2pboua/N1cky.HDR-flash.part2.rar
    http://uploaded.net/file/o335v3ia/N1cky.HDR-flash.part3.rar

    Mixto - Uptobox, 1Fichier (Uploaded 100 MB Aproximadamente)




    Código:
    http://uptobox.com/8q71ocp4ku19
    http://uptobox.com/yhd8y5h7jwae
    http://uploaded.net/file/o335v3ia/N1cky.HDR-flash.part3.rar




    Código:
    http://enzevekqga.1fichier.com/
    http://99s78y94vs.1fichier.com/
    http://uploaded.net/file/o335v3ia/N1cky.HDR-flash.part3.rar

  3. #3
    Pequeño Hacker Avatar de Mrsherlock
    Pais
    Colombia
    Bandera
    Ingreso
    Jun 2014
    Género
    Agradecer
    0
    Agrad. 33 veces en 30 posteos

    Video Nicky, la aprendiz de bruja (2014) [Micro HD720p] [Cast(Ac3 5.1)Jap(Ac3)]






    Como manda la tradición de las brujas, al cumplir los 13 años Nicky se ve obligada a abandonar su hogar durante un año entero para desarrollar al completo sus poderes y aprender a usarlos para ayudar a los demás. Montada en su escoba voladora y acompañada por su fiel gato Jiji, Nicky pondrá rumbo a Koriko, un pequeño pueblo costero donde vivirá increíbles aventuras y hará grandes amistades, pero también tendrá que hacer frente a las dificultades de ser una bruja y tener poderes que la hacen diferente del resto de personas.




    Título original: Majo no Takky?bin (Kiki's Delivery Service)
    Año: 2014
    Duración: 108 min
    Director: Takashi Shimizu
    Guión: Novela: Kadono Eiko
    Música: Tarô Iwashiro
    Fotografía: Sôhei Tanikawa
    Reparto: Koshiba Fuka, Machiko Ono, Rie Miyazawa, Tadanobu Asano, Michitaka Tsutsui, Hiroshi Yamamoto, Miki Hayashida, Ryohei Hirota, Miho Kanazawa
    Productora: Being / D.N. Dream Partners / EDKO Film
    Género: Fantástico. Aventuras | Brujería

    MEDIA INFO

    Código:
    Format                                   : Matroska
    Format version                           : Version 2
    File size                                : 2.71 GiB
    Duration                                 : 1h 48mn
    Overall bit rate                         : 3 565 Kbps
    Movie name                               : Jubowo @ WiKi
    Encoded date                             : UTC 2014-10-23 16:03:34
    Writing application                      : mkvmerge v5.0.1 ('Es ist Sommer') built on Oct  9 2011 11:55:43
    Writing library                          : libebml v1.2.2 + libmatroska v1.3.0
    Attachment                               : Yes / Yes / Yes / Yes
    
    
    Video
    ID                                       : 1
    Format                                   : AVC
    Format/Info                              : Advanced Video Codec
    Format profile                           : High@L4.1
    Format settings, CABAC                   : Yes
    Format settings, ReFrames                : 2 frames
    Codec ID                                 : V_MPEG4/ISO/AVC
    Duration                                 : 1h 48mn
    Bit rate                                 : 2 406 Kbps
    Width                                    : 1 280 pixels
    Height                                   : 690 pixels
    Display aspect ratio                     : 1.85:1
    Frame rate mode                          : Constant
    Frame rate                               : 23.976 fps
    Color space                              : YUV
    Chroma subsampling                       : 4:2:0
    Bit depth                                : 8 bits
    Scan type                                : Progressive
    Bits/(Pixel*Frame)                       : 0.114
    Stream size                              : 1.83 GiB (67%)
    Writing library                          : x264 core
    Default                                  : Yes
    Forced                                   : No
    Color primaries                          : BT.709
    Transfer characteristics                 : BT.709
    Matrix coefficients                      : BT.709
    
    
    Audio #1
    ID                                       : 2
    Format                                   : AC-3
    Format/Info                              : Audio Coding 3
    Mode extension                           : CM (complete main)
    Format settings, Endianness              : Big
    Codec ID                                 : A_AC3
    Duration                                 : 1h 48mn
    Bit rate mode                            : Constant
    Bit rate                                 : 448 Kbps
    Channel count                            : 6 channels
    Channel positions                        : Front: L C R, Side: L R, LFE
    Sampling rate                            : 48.0 KHz
    Bit depth                                : 16 bits
    Compression mode                         : Lossy
    Stream size                              : 349 MiB (13%)
    Language                                 : Spanish
    Default                                  : Yes
    Forced                                   : Yes
    
    
    Audio #2
    ID                                       : 3
    Format                                   : AC-3
    Format/Info                              : Audio Coding 3
    Mode extension                           : CM (complete main)
    Format settings, Endianness              : Big
    Codec ID                                 : A_AC3
    Duration                                 : 1h 48mn
    Bit rate mode                            : Constant
    Bit rate                                 : 640 Kbps
    Channel count                            : 6 channels
    Channel positions                        : Front: L C R, Side: L R, LFE
    Sampling rate                            : 48.0 KHz
    Bit depth                                : 16 bits
    Compression mode                         : Lossy
    Stream size                              : 498 MiB (18%)
    Language                                 : Japanese
    Default                                  : No
    Forced                                   : No











    1 Link



    Código:
    http://uploaded.net/file/koitqc2f/Nicky.BDR.m720p.flash.rar

    Links Por Partes



    Código:
    http://uploaded.net/file/op6xd5po/Nicky.BDR.m720p-flash.part1.rar
    http://uploaded.net/file/nupte97q/Nicky.BDR.m720p-flash.part2.rar
    http://uploaded.net/file/8h14evbv/Nicky.BDR.m720p-flash.part3.rar
    http://uploaded.net/file/b3kyyjwd/Nicky.BDR.m720p-flash.part4.rar

    Mixto - Uptobox, 1Fichier (Uploaded 100 MB Aproximadamente)




    Código:
    http://uptobox.com/hubwp8lrxdb3
    http://uptobox.com/a3cf5nh2ga18
    http://uptobox.com/c4f1yt91rfaq
    http://uploaded.net/file/b3kyyjwd/Nicky.BDR.m720p-flash.part4.rar




    Código:
    http://atpc691etz.1fichier.com/
    http://np3z58tlia.1fichier.com/
    http://rjbk1ft3ul.1fichier.com/
    http://uploaded.net/file/b3kyyjwd/Nicky.BDR.m720p-flash.part4.rar

Etiquetas para este tema

Permisos de publicación

  • No puedes crear nuevos temas
  • No puedes responder temas
  • No puedes subir archivos adjuntos
  • No puedes editar tus mensajes
  •