Comedia centrada en el mundo de la política y los lobbies de Washington, inspirada en hechos reales, en la que el ganador de dos Oscar Kevin Spacey da vida a Jack Abramoff, un poderoso y corrupto lobbista republicano que se enriqueció mediante múltiples fraudes y numerosos sobornos que realizó aprovechándose de las tribus de indios a quienes representaba en el Congreso. La película examina un sistema defectuoso y fácilmente corrompido, y muestra que cuando nuestros políticos están a la venta, nuestra democracia es frágil y casi inexistente, y como los intereses de las grandes corporaciones y grupos influyentes tienen prioridad sobre los intereses del pueblo. Sigue siendo el mayor escándalo que ha sacudido Washington, D.C. desde el Watergate.




Título original: Casino Jack
Año: 2010
Duración: 108 min.
Director: George Hickenlooper
Guión:Norman Snider
Música: Jonathan Goldsmith
Fotografía: Adam Swica
Reparto: Kevin Spacey, Barry Pepper, Kelly Preston, Rachelle Lefevre , Jon Lovitz, Eric Schweig, Maury Chaykin, Yannick Bisson, Christian Campbell, Daniel Kash, Spencer Garrett, Joe Pingue
Productora: ATO Pictures
Género: Comedia | Política. Basado en hechos reales

MEDIA INFO

Código:
Format                                   : Matroska
Format version                           : Version 2
File size                                : 4.05 GiB
Duration                                 : 1h 49mn
Overall bit rate                         : 5 300 Kbps
Encoded date                             : UTC 2014-10-22 17:37:36
Writing application                      : mkvmerge v5.0.1 ('Es ist Sommer') built on Oct  9 2011 11:55:43
Writing library                          : libebml v1.2.2 + libmatroska v1.3.0


Video
ID                                       : 1
Format                                   : AVC
Format/Info                              : Advanced Video Codec
Format profile                           : High@L4.1
Format settings, CABAC                   : Yes
Format settings, ReFrames                : 4 frames
Codec ID                                 : V_MPEG4/ISO/AVC
Duration                                 : 1h 49mn
Bit rate                                 : 4 500 Kbps
Width                                    : 1 920 pixels
Height                                   : 1 072 pixels
Display aspect ratio                     : 16:9
Frame rate mode                          : Constant
Frame rate                               : 23.976 fps
Color space                              : YUV
Chroma subsampling                       : 4:2:0
Bit depth                                : 8 bits
Scan type                                : Progressive
Bits/(Pixel*Frame)                       : 0.091
Stream size                              : 3.28 GiB (81%)
Writing library                          : x264 core 130 r2273 b3065e6
Encoding settings                        : cabac=1 / ref=3 / deblock=1:0:0 / analyse=0x3:0x113 / me=hex / subme=7 / psy=1 / psy_rd=1.00:0.00 / mixed_ref=1 / me_range=16 / chroma_me=1 / trellis=1 / 8x8dct=1 / cqm=0 / deadzone=21,11 / fast_pskip=1 / chroma_qp_offset=-2 / threads=24 / lookahead_threads=4 / sliced_threads=0 / nr=0 / decimate=1 / interlaced=0 / bluray_compat=0 / constrained_intra=0 / bframes=3 / b_pyramid=2 / b_adapt=1 / b_bias=0 / direct=1 / weightb=1 / open_gop=0 / weightp=2 / keyint=240 / keyint_min=24 / scenecut=40 / intra_refresh=0 / rc_lookahead=40 / rc=abr / mbtree=1 / bitrate=4500 / ratetol=1.0 / qcomp=0.60 / qpmin=0 / qpmax=69 / qpstep=4 / vbv_maxrate=62500 / vbv_bufsize=78125 / nal_hrd=none / ip_ratio=1.40 / aq=1:1.00
Language                                 : English
Default                                  : Yes
Forced                                   : No
Color primaries                          : BT.709
Transfer characteristics                 : BT.709
Matrix coefficients                      : BT.709


Audio #1
ID                                       : 2
Format                                   : AC-3
Format/Info                              : Audio Coding 3
Mode extension                           : CM (complete main)
Format settings, Endianness              : Big
Codec ID                                 : A_AC3
Duration                                 : 1h 49mn
Bit rate mode                            : Constant
Bit rate                                 : 448 Kbps
Channel count                            : 6 channels
Channel positions                        : Front: L C R, Side: L R, LFE
Sampling rate                            : 48.0 KHz
Bit depth                                : 16 bits
Compression mode                         : Lossy
Stream size                              : 351 MiB (8%)
Language                                 : Spanish
Default                                  : No
Forced                                   : Yes


Audio #2
ID                                       : 3
Format                                   : AC-3
Format/Info                              : Audio Coding 3
Mode extension                           : CM (complete main)
Format settings, Endianness              : Big
Codec ID                                 : A_AC3
Duration                                 : 1h 49mn
Bit rate mode                            : Constant
Bit rate                                 : 448 Kbps
Channel count                            : 6 channels
Channel positions                        : Front: L C R, Side: L R, LFE
Sampling rate                            : 48.0 KHz
Bit depth                                : 16 bits
Compression mode                         : Lossy
Stream size                              : 351 MiB (8%)
Language                                 : English
Default                                  : Yes
Forced                                   : No


Text #1
ID                                       : 4
Format                                   : UTF-8
Codec ID                                 : S_TEXT/UTF8
Codec ID/Info                            : UTF-8 Plain Text
Language                                 : Spanish
Default                                  : No
Forced                                   : No


Text #2
ID                                       : 5
Format                                   : PGS
Muxing mode                              : zlib
Codec ID                                 : S_HDMV/PGS
Codec ID/Info                            : The same subtitle format used on BDs/HD-DVDs
Language                                 : English
Default                                  : No
Forced                                   : No











1 Link



Código:
http://uploaded.net/file/ctm942em/C0rrupci0n.p0d3r.BDR.m1080p.flash.rar

Links Por Partes



Código:
http://uploaded.net/file/tkd1e1n3/C0rrupci0n.p0d3r.BDR.m1080p-flash.part1.rar
http://uploaded.net/file/siu9oro9/C0rrupci0n.p0d3r.BDR.m1080p-flash.part2.rar
http://uploaded.net/file/l91zkgge/C0rrupci0n.p0d3r.BDR.m1080p-flash.part3.rar
http://uploaded.net/file/gro3tjll/C0rrupci0n.p0d3r.BDR.m1080p-flash.part4.rar
http://uploaded.net/file/8f7z9xj8/C0rrupci0n.p0d3r.BDR.m1080p-flash.part5.rar
http://uploaded.net/file/pru8o77f/C0rrupci0n.p0d3r.BDR.m1080p-flash.part6.rar

Mixto - Uptobox, 1Fichier (Uploaded 100 MB Aproximadamente)




Código:
http://uptobox.com/5go0olfo7rj8
http://uptobox.com/1axcayqk432z
http://uptobox.com/5auehkj4o7kq
http://uptobox.com/s9565i5nh44y
http://uptobox.com/9ggy7uzktn0g
http://uploaded.net/file/pru8o77f/C0rrupci0n.p0d3r.BDR.m1080p-flash.part6.rar




Código:
http://2bsp9df7vs.1fichier.com/
http://bhqmv0r6h1.1fichier.com/
http://sku75b2t8r.1fichier.com/
http://wg3sqymdkc.1fichier.com/
http://w62qwymzsz.1fichier.com/
http://uploaded.net/file/pru8o77f/C0rrupci0n.p0d3r.BDR.m1080p-flash.part6.rar