Comedia centrada en el mundo de la política y los lobbies de Washington, inspirada en hechos reales, en la que el ganador de dos Oscar Kevin Spacey da vida a Jack Abramoff, un poderoso y corrupto lobbista republicano que se enriqueció mediante múltiples fraudes y numerosos sobornos que realizó aprovechándose de las tribus de indios a quienes representaba en el Congreso. La película examina un sistema defectuoso y fácilmente corrompido, y muestra que cuando nuestros políticos están a la venta, nuestra democracia es frágil y casi inexistente, y como los intereses de las grandes corporaciones y grupos influyentes tienen prioridad sobre los intereses del pueblo. Sigue siendo el mayor escándalo que ha sacudido Washington, D.C. desde el Watergate.




Título original: Casino Jack
Año: 2010
Duración: 108 min.
Director: George Hickenlooper
Guión: Norman Snider
Música: Jonathan Goldsmith
Fotografía: Adam Swica
Reparto: Kevin Spacey, Barry Pepper, Kelly Preston, Rachelle Lefevre , Jon Lovitz, Eric Schweig, Maury Chaykin, Yannick Bisson, Christian Campbell, Daniel Kash, Spencer Garrett, Joe Pingue
Productora: ATO Pictures
Género: Comedia | Política. Basado en hechos reales

MEDIA INFO

Código:
Format                                   : Matroska
Format version                           : Version 4 / Version 2
File size                                : 2.42 GiB
Duration                                 : 1h 49mn
Overall bit rate                         : 3 172 Kbps
Encoded date                             : UTC 2014-10-22 17:41:40
Writing application                      : mkvmerge v7.2.0 ('On Every Street') 64bit built on Sep 13 2014 15:52:10
Writing library                          : libebml v1.3.0 + libmatroska v1.4.1
DURATION                                 : 01:48:02.195000000
NUMBER_OF_FRAMES                         : 155417
NUMBER_OF_BYTES                          : 1843324534
_STATISTICS_WRITING_APP                  : mkvmerge v7.2.0 ('On Every Street') 64bit built on Sep 13 2014 15:52:10
_STATISTICS_WRITING_DATE_UTC             : 2014-10-22 17:41:40
_STATISTICS_TAGS                         : BPS DURATION NUMBER_OF_FRAMES NUMBER_OF_BYTES


Video
ID                                       : 1
Format                                   : AVC
Format/Info                              : Advanced Video Codec
Format profile                           : High@L4.1
Format settings, CABAC                   : Yes
Format settings, ReFrames                : 2 frames
Codec ID                                 : V_MPEG4/ISO/AVC
Duration                                 : 1h 49mn
Bit rate                                 : 2 212 Kbps
Width                                    : 1 280 pixels
Height                                   : 718 pixels
Display aspect ratio                     : 16:9
Frame rate mode                          : Constant
Frame rate                               : 23.976 fps
Color space                              : YUV
Chroma subsampling                       : 4:2:0
Bit depth                                : 8 bits
Scan type                                : Progressive
Bits/(Pixel*Frame)                       : 0.100
Stream size                              : 1.69 GiB (70%)
Writing library                          : x264 core
Default                                  : Yes
Forced                                   : No
Color primaries                          : BT.709
Transfer characteristics                 : BT.709
Matrix coefficients                      : BT.709


Audio #1
ID                                       : 2
Format                                   : AC-3
Format/Info                              : Audio Coding 3
Mode extension                           : CM (complete main)
Format settings, Endianness              : Big
Codec ID                                 : A_AC3
Duration                                 : 1h 49mn
Bit rate mode                            : Constant
Bit rate                                 : 448 Kbps
Channel count                            : 6 channels
Channel positions                        : Front: L C R, Side: L R, LFE
Sampling rate                            : 48.0 KHz
Bit depth                                : 16 bits
Compression mode                         : Lossy
Stream size                              : 351 MiB (14%)
Language                                 : Spanish
Default                                  : No
Forced                                   : Yes


Audio #2
ID                                       : 3
Format                                   : AC-3
Format/Info                              : Audio Coding 3
Mode extension                           : CM (complete main)
Format settings, Endianness              : Big
Codec ID                                 : A_AC3
Duration                                 : 1h 49mn
Bit rate mode                            : Constant
Bit rate                                 : 448 Kbps
Channel count                            : 6 channels
Channel positions                        : Front: L C R, Side: L R, LFE
Sampling rate                            : 48.0 KHz
Bit depth                                : 16 bits
Compression mode                         : Lossy
Stream size                              : 351 MiB (14%)
Language                                 : English
Default                                  : Yes
Forced                                   : No


Text #1
ID                                       : 4
Format                                   : UTF-8
Codec ID                                 : S_TEXT/UTF8
Codec ID/Info                            : UTF-8 Plain Text
Language                                 : Spanish
Default                                  : No
Forced                                   : No


Text #2
ID                                       : 5
Format                                   : PGS
Muxing mode                              : zlib
Codec ID                                 : S_HDMV/PGS
Codec ID/Info                            : The same subtitle format used on BDs/HD-DVDs
Language                                 : English
Default                                  : No
Forced                                   : No











1 Link



Código:
http://uploaded.net/file/4njmwimq/C0rrupci0n.p0d3r.BDR.m720p.flash.rar

Links Por Partes



Código:
http://uploaded.net/file/5j0zfoz9/C0rrupci0n.p0d3r.BDR.m720p-flash.part1.rar
http://uploaded.net/file/zknd2qil/C0rrupci0n.p0d3r.BDR.m720p-flash.part2.rar
http://uploaded.net/file/dem6dh87/C0rrupci0n.p0d3r.BDR.m720p-flash.part3.rar
http://uploaded.net/file/d4nccs9h/C0rrupci0n.p0d3r.BDR.m720p-flash.part4.rar

Mixto - Uptobox, 1Fichier (Uploaded 100 MB Aproximadamente)




Código:
http://uptobox.com/swxvoo79cr73
http://uptobox.com/ih3vjku10hpk
http://uptobox.com/k5udcciednzz
http://uploaded.net/file/d4nccs9h/C0rrupci0n.p0d3r.BDR.m720p-flash.part4.rar




Código:
http://dsm3vvkvnw.1fichier.com/
http://kencfhsmx2.1fichier.com/
http://e68mqv1uf0.1fichier.com/
http://uploaded.net/file/d4nccs9h/C0rrupci0n.p0d3r.BDR.m720p-flash.part4.rar