Resultados 1 al 5 de 5

Tema: Buda 2: Camino a la Iluminación (2014) [DVDRip XviD][Castellano AC3 5.1][Animaci

  1. #1
    Pequeño Hacker Avatar de spook90
    Pais
    Argentina
    Bandera
    Ingreso
    Oct 2013
    Género
    Agradecer
    0
    Agrad. 78 veces en 72 posteos

    Video Buda 2: Camino a la Iluminación (2014) [DVDRip XviD][Castellano AC3 5.1][Animaci





    Hace 2500 años, Siddharta nació en el Reino de Shakya de la India, pero renuncia a su posición como Príncipe heredero para poder descubrir el mundo por sí mismo. En esta nueva etapa de su viaje hacia la iluminación conocerá a nuevos compañeros, como Assaji, un extraño muchacho que puede predecir el futuro, o Depa, un monje con un solo ojo. Abrumado por todo el sufrimiento que le rodea, Siddharta no es consciente que mientras él continúa su viaje, el Reino de Kosala, liderado por el Príncipe Ruri, se prepara para llevar a cabo el ataque definitivo contra Shakya. Secuela de "Buda: El gran viaje"



    Título original Tezuka Osamu no Buddha: Owarinaki Tabi (Buddha 2)
    Año 2014
    Duración 85 min.
    País [Japón] Japón
    Director Toshiaki Komura
    Guión Reiko Yoshida (Manga: Osamu Tezuka)
    Fotografía Animation
    Reparto Animation
    Productora Toei Animation
    Género Animación. Drama | Histórico. Cine épico. Animación para adultos. Secuela. Manga

    Dvdrip XviD | Castellano AC3 5.1 | 1.18 gb | Animación, Drama | 2014









    SERVIDORES

    MEGA | UPLOADED

    Bájate Todo desde Mega, y sólo una parte de Uploaded ---- Enlaces intercambiables

    Código:
    http://ncrypt.in/folder-6QF9n2rb

  2. El siguiente usuario agradeció a spook90 por este aporte:

    vladi99 (22 10 2014)

  3. #2
    Pequeño Hacker Avatar de spook90
    Pais
    Argentina
    Bandera
    Ingreso
    Oct 2013
    Género
    Agradecer
    0
    Agrad. 78 veces en 72 posteos

    Video Buda 2: Camino a la Iluminación (2014) [HDRip XviD][Castellano AC3 5.1][Animaci





    Hace 2500 años, Siddharta nació en el Reino de Shakya de la India, pero renuncia a su posición como Príncipe heredero para poder descubrir el mundo por sí mismo. En esta nueva etapa de su viaje hacia la iluminación conocerá a nuevos compañeros, como Assaji, un extraño muchacho que puede predecir el futuro, o Depa, un monje con un solo ojo. Abrumado por todo el sufrimiento que le rodea, Siddharta no es consciente que mientras él continúa su viaje, el Reino de Kosala, liderado por el Príncipe Ruri, se prepara para llevar a cabo el ataque definitivo contra Shakya. Secuela de "Buda: El gran viaje"




    Título original Tezuka Osamu no Buddha: Owarinaki Tabi (Buddha 2)
    Año 2014
    Duración 85 min.
    País [Japón] Japón
    Director Toshiaki Komura
    Guión Reiko Yoshida (Manga: Osamu Tezuka)
    Fotografía Animation
    Reparto Animation
    Productora Toei Animation
    Género Animación. Drama | Histórico. Cine épico. Animación para adultos. Secuela. Manga

    HDrip XviD | Castellano AC3 5.1 | 1.31 gb | Animación, Drama | 2014











    SERVIDORES

    MEGA | UPLOADED

    Bájate Todo desde Mega, y sólo una parte de Uploaded ---- Enlaces intercambiables

    Código:
    http://ncrypt.in/folder-QnWUMgMs

  4. #3
    Pequeño Hacker Avatar de Mrsherlock
    Pais
    Colombia
    Bandera
    Ingreso
    Jun 2014
    Género
    Agradecer
    0
    Agrad. 33 veces en 30 posteos

    Video Buda 2: Camino a la Iluminación (2014) [HDRip] [Castellano AC3 5.1]






    Hace 2500 años, Siddharta nació en el Reino de Shakya de la India, pero renuncia a su posición como Príncipe heredero para poder descubrir el mundo por sí mismo. En esta nueva etapa de su viaje hacia la iluminación conocerá a nuevos compañeros, como Assaji, un extraño muchacho que puede predecir el futuro, o Depa, un monje con un solo ojo. Abrumado por todo el sufrimiento que le rodea, Siddharta no es consciente que mientras él continúa su viaje, el Reino de Kosala, liderado por el Príncipe Ruri, se prepara para llevar a cabo el ataque definitivo contra Shakya. Secuela de "Buda: El gran viaje" (2011)




    Título original: Tezuka Osamu no Buddha: Owarinaki Tabi (Buddha 2)
    Año: 2014
    Duración: 85 min.
    País: [Japón] Japón
    Director: Toshiaki Komura
    Guión: Reiko Yoshida (Manga: Osamu Tezuka)
    Fotografía: Animation
    Reparto: Animation
    Productora: Toei Animation
    Género: Animación. Drama | Histórico. Cine épico. Animación para adultos. Secuela. Manga

    Calidad : HDRip XviD 720x400
    Idioma : Castellano Ac3 5.1
    Tamaño : 1.5 GB












    1 Link



    Código:
    http://uploaded.net/file/jm3yqvvk/Bud4.2.HDR.flash.rar

    Links Por Partes



    Código:
    http://uploaded.net/file/i0qptjwm/Bud4.2.HDR-flash.part1.rar
    http://uploaded.net/file/s21y2gwf/Bud4.2.HDR-flash.part2.rar
    http://uploaded.net/file/py9ftuq5/Bud4.2.HDR-flash.part3.rar

    Mixto - Uptobox, 1Fichier (Uploaded 100 MB Aproximadamente)




    Código:
    http://uptobox.com/tx4zd7xh628s
    http://uptobox.com/5s6buyt5u8ip
    http://uploaded.net/file/py9ftuq5/Bud4.2.HDR-flash.part3.rar




    Código:
    http://n85xono454.1fichier.com/
    http://7lxt4ekypt.1fichier.com/
    http://uploaded.net/file/py9ftuq5/Bud4.2.HDR-flash.part3.rar

  5. #4
    Pequeño Hacker Avatar de Mrsherlock
    Pais
    Colombia
    Bandera
    Ingreso
    Jun 2014
    Género
    Agradecer
    0
    Agrad. 33 veces en 30 posteos

    Video Buda 2: Camino a la Iluminación (2014) [Micro HD720] [Cast(Ac3 5.1)/Jap(Ac3)]






    Hace 2500 años, Siddharta nació en el Reino de Shakya de la India, pero renuncia a su posición como Príncipe heredero para poder descubrir el mundo por sí mismo. En esta nueva etapa de su viaje hacia la iluminación conocerá a nuevos compañeros, como Assaji, un extraño muchacho que puede predecir el futuro, o Depa, un monje con un solo ojo. Abrumado por todo el sufrimiento que le rodea, Siddharta no es consciente que mientras él continúa su viaje, el Reino de Kosala, liderado por el Príncipe Ruri, se prepara para llevar a cabo el ataque definitivo contra Shakya. Secuela de "Buda: El gran viaje" (2011)




    Título original: Tezuka Osamu no Buddha: Owarinaki Tabi (Buddha 2)
    Año: 2014
    Duración: 90 min.
    Director: Toshiaki Komura
    Guión: Reiko Yoshida (Manga: Osamu Tezuka)
    Música: Animation
    Fotografía: Animation
    Reparto: Animation
    Productora: Toei Animation
    Género: Animación. Drama | Histórico. Cine épico. Animación para adultos. Secuela. Manga

    MEDIA INFO

    Código:
    Format                                   : Matroska
    Format version                           : Version 2
    File size                                : 2.09 GiB
    Duration                                 : 1h 25mn
    Overall bit rate                         : 3 510 Kbps
    Encoded date                             : UTC 2014-10-22 00:04:30
    Writing application                      : mkvmerge v5.0.1 ('Es ist Sommer') built on Oct  9 2011 11:55:43
    Writing library                          : libebml v1.2.2 + libmatroska v1.3.0
    
    Video
    ID                                       : 1
    Format                                   : AVC
    Format/Info                              : Advanced Video Codec
    Format profile                           : High@L4.1
    Format settings, CABAC                   : Yes
    Format settings, ReFrames                : 2 frames
    Codec ID                                 : V_MPEG4/ISO/AVC
    Duration                                 : 1h 25mn
    Bit rate                                 : 2 608 Kbps
    Width                                    : 1 280 pixels
    Height                                   : 720 pixels
    Display aspect ratio                     : 16:9
    Frame rate                               : 23.976 fps
    Color space                              : YUV
    Chroma subsampling                       : 4:2:0
    Bit depth                                : 8 bits
    Scan type                                : Progressive
    Bits/(Pixel*Frame)                       : 0.118
    Stream size                              : 1.56 GiB (74%)
    Writing library                          : x264 core
    Color primaries                          : BT.709-5, BT.1361, IEC 61966-2-4, SMPTE RP177
    Transfer characteristics                 : BT.709-5, BT.1361
    Matrix coefficients                      : BT.709-5, BT.1361, IEC 61966-2-4 709, SMPTE RP177
    
    Audio #1
    ID                                       : 2
    Format                                   : AC-3
    Format/Info                              : Audio Coding 3
    Mode extension                           : CM (complete main)
    Codec ID                                 : A_AC3
    Duration                                 : 1h 25mn
    Bit rate mode                            : Constant
    Bit rate                                 : 384 Kbps
    Channel(s)                               : 6 channels
    Channel positions                        : Front: L C R, Side: L R, LFE
    Sampling rate                            : 48.0 KHz
    Bit depth                                : 16 bits
    Compression mode                         : Lossy
    Stream size                              : 235 MiB (11%)
    Title                                    : Castellano AC3 5.1
    Language                                 : Spanish
    
    Audio #2
    ID                                       : 3
    Format                                   : AC-3
    Format/Info                              : Audio Coding 3
    Mode extension                           : CM (complete main)
    Codec ID                                 : A_AC3
    Duration                                 : 1h 25mn
    Bit rate mode                            : Constant
    Bit rate                                 : 448 Kbps
    Channel(s)                               : 6 channels
    Channel positions                        : Front: L C R, Side: L R, LFE
    Sampling rate                            : 48.0 KHz
    Bit depth                                : 16 bits
    Compression mode                         : Lossy
    Stream size                              : 274 MiB (13%)
    Title                                    : Japones AC3 5.1
    Language                                 : Japanese











    1 Link



    Código:
    http://uploaded.net/file/izst3z9j/Bud4.2.BDR.m720p.flash.rar

    Links Por Partes



    Código:
    http://uploaded.net/file/mgqlgfy9/Bud4.2.BDR.m720p-flash.part1.rar
    http://uploaded.net/file/30a8ntwu/Bud4.2.BDR.m720p-flash.part2.rar
    http://uploaded.net/file/tvb2dmkt/Bud4.2.BDR.m720p-flash.part3.rar
    http://uploaded.net/file/9lurwvgx/Bud4.2.BDR.m720p-flash.part4.rar

    Mixto - Uptobox, 1Fichier (Uploaded 100 MB Aproximadamente)




    Código:
    http://uptobox.com/yg7uxlhujbkw
    http://uptobox.com/waoyqgi8zmtx
    http://uptobox.com/zzd8q8480s5b
    http://uploaded.net/file/9lurwvgx/Bud4.2.BDR.m720p-flash.part4.rar




    Código:
    http://k68hmaossw.1fichier.com/
    http://vhgerbnkxv.1fichier.com/
    http://ay5hg7venb.1fichier.com/
    http://uploaded.net/file/9lurwvgx/Bud4.2.BDR.m720p-flash.part4.rar

  6. #5
    Pequeño Hacker Avatar de Mrsherlock
    Pais
    Colombia
    Bandera
    Ingreso
    Jun 2014
    Género
    Agradecer
    0
    Agrad. 33 veces en 30 posteos

    Video Buda 2: Camino a la Iluminación (2014) [Micro HD1080] [Cast(Ac3 5.1)/Jap(Ac3)]






    Hace 2500 años, Siddharta nació en el Reino de Shakya de la India, pero renuncia a su posición como Príncipe heredero para poder descubrir el mundo por sí mismo. En esta nueva etapa de su viaje hacia la iluminación conocerá a nuevos compañeros, como Assaji, un extraño muchacho que puede predecir el futuro, o Depa, un monje con un solo ojo. Abrumado por todo el sufrimiento que le rodea, Siddharta no es consciente que mientras él continúa su viaje, el Reino de Kosala, liderado por el Príncipe Ruri, se prepara para llevar a cabo el ataque definitivo contra Shakya. Secuela de "Buda: El gran viaje" (2011)




    Título original: Tezuka Osamu no Buddha: Owarinaki Tabi (Buddha 2)
    Año: 2014
    Duración: 90 min.
    Director: Toshiaki Komura
    Guión: Reiko Yoshida (Manga: Osamu Tezuka)
    Música: Animation
    Fotografía: Animation
    Reparto: Animation
    Productora: Toei Animation
    Género: Animación. Drama | Histórico. Cine épico. Animación para adultos. Secuela. Manga

    MEDIA INFO

    Código:
    Format                                   : Matroska
    Format version                           : Version 2
    File size                                : 3.15 GiB
    Duration                                 : 1h 25mn
    Overall bit rate                         : 5 276 Kbps
    Encoded date                             : UTC 2014-10-21 23:59:24
    Writing application                      : mkvmerge v5.0.1 ('Es ist Sommer') built on Oct  9 2011 11:55:43
    Writing library                          : libebml v1.2.2 + libmatroska v1.3.0
    
    Video
    ID                                       : 1
    Format                                   : AVC
    Format/Info                              : Advanced Video Codec
    Format profile                           : High@L4.1
    Format settings, CABAC                   : Yes
    Format settings, ReFrames                : 4 frames
    Codec ID                                 : V_MPEG4/ISO/AVC
    Duration                                 : 1h 25mn
    Bit rate                                 : 4 500 Kbps
    Width                                    : 1 920 pixels
    Height                                   : 1 088 pixels
    Display aspect ratio                     : 16:9
    Frame rate mode                          : Variable
    Frame rate                               : 23.976 fps
    Color space                              : YUV
    Chroma subsampling                       : 4:2:0
    Bit depth                                : 8 bits
    Scan type                                : Progressive
    Bits/(Pixel*Frame)                       : 0.090
    Stream size                              : 2.59 GiB (82%)
    Writing library                          : x264 core 130 r2273 b3065e6
    Encoding settings                        : cabac=1 / ref=3 / deblock=1:0:0 / analyse=0x3:0x113 / me=hex / subme=7 / psy=1 / psy_rd=1.00:0.00 / mixed_ref=1 / me_range=16 / chroma_me=1 / trellis=1 / 8x8dct=1 / cqm=0 / deadzone=21,11 / fast_pskip=1 / chroma_qp_offset=-2 / threads=24 / lookahead_threads=4 / sliced_threads=0 / nr=0 / decimate=1 / interlaced=0 / bluray_compat=0 / constrained_intra=0 / bframes=3 / b_pyramid=2 / b_adapt=1 / b_bias=0 / direct=1 / weightb=1 / open_gop=0 / weightp=2 / keyint=240 / keyint_min=24 / scenecut=40 / intra_refresh=0 / rc_lookahead=40 / rc=abr / mbtree=1 / bitrate=4500 / ratetol=1.0 / qcomp=0.60 / qpmin=0 / qpmax=69 / qpstep=4 / vbv_maxrate=62500 / vbv_bufsize=78125 / nal_hrd=none / ip_ratio=1.40 / aq=1:1.00
    Language                                 : English
    Color primaries                          : BT.709-5, BT.1361, IEC 61966-2-4, SMPTE RP177
    Transfer characteristics                 : BT.709-5, BT.1361
    Matrix coefficients                      : BT.709-5, BT.1361, IEC 61966-2-4 709, SMPTE RP177
    
    Audio #1
    ID                                       : 2
    Format                                   : AC-3
    Format/Info                              : Audio Coding 3
    Mode extension                           : CM (complete main)
    Codec ID                                 : A_AC3
    Duration                                 : 1h 25mn
    Bit rate mode                            : Constant
    Bit rate                                 : 384 Kbps
    Channel(s)                               : 6 channels
    Channel positions                        : Front: L C R, Side: L R, LFE
    Sampling rate                            : 48.0 KHz
    Bit depth                                : 16 bits
    Compression mode                         : Lossy
    Stream size                              : 235 MiB (7%)
    Language                                 : Spanish
    
    Audio #2
    ID                                       : 3
    Format                                   : AC-3
    Format/Info                              : Audio Coding 3
    Mode extension                           : CM (complete main)
    Codec ID                                 : A_AC3
    Duration                                 : 1h 25mn
    Bit rate mode                            : Constant
    Bit rate                                 : 448 Kbps
    Channel(s)                               : 6 channels
    Channel positions                        : Front: L C R, Side: L R, LFE
    Sampling rate                            : 48.0 KHz
    Bit depth                                : 16 bits
    Compression mode                         : Lossy
    Stream size                              : 274 MiB (8%)
    Language                                 : Japanese
    
    Menu
    00:00:00.000                             : en:Chapter 1
    00:06:04.823                             : en:Chapter 2
    00:08:38.476                             : en:Chapter 3
    00:12:19.030                             : en:Chapter 4
    00:14:55.061                             : en:Chapter 5
    00:21:26.702                             : en:Chapter 6
    00:26:22.790                             : en:Chapter 7
    00:32:27.070                             : en:Chapter 8
    00:38:40.360                             : en:Chapter 9
    00:41:37.412                             : en:Chapter 10
    00:45:41.864                             : en:Chapter 11
    00:51:28.627                             : en:Chapter 12
    00:52:09.168                             : en:Chapter 13
    00:53:12.106                             : en:Chapter 14
    01:01:35.233                             : en:Chapter 15
    01:05:40.603                             : en:Chapter 16
    01:10:22.301                             : en:Chapter 17
    01:17:16.090                             : en:Chapter 18
    01:19:26.637                             : en:Chapter 19
    01:21:03.192                             : en:Chapter 20











    1 Link



    Código:
    http://uploaded.net/file/clhnq4n5/Bud4.2.BDR.m1080p.flash.rar

    Links Por Partes



    Código:
    http://uploaded.net/file/aq0iv6j9/Bud4.2.BDR.m1080p-flash.part1.rar
    http://uploaded.net/file/flhqgf9e/Bud4.2.BDR.m1080p-flash.part2.rar
    http://uploaded.net/file/ogo51sn8/Bud4.2.BDR.m1080p-flash.part3.rar
    http://uploaded.net/file/vimft8zn/Bud4.2.BDR.m1080p-flash.part4.rar
    http://uploaded.net/file/l9yjqfg7/Bud4.2.BDR.m1080p-flash.part5.rar

    Mixto - Uptobox, 1Fichier (Uploaded 100 MB Aproximadamente)




    Código:
    http://uptobox.com/yt2dm1yjomff
    http://uptobox.com/l1w3pg1nk4nd
    http://uptobox.com/tige5r3dha8t
    http://uptobox.com/0utgkshsnapk
    http://uploaded.net/file/l9yjqfg7/Bud4.2.BDR.m1080p-flash.part5.rar




    Código:
    http://oi20v329v3.1fichier.com/
    http://mftwxw7xyt.1fichier.com/
    http://kwafz7t5ss.1fichier.com/
    http://n8q846wwjy.1fichier.com/
    http://uploaded.net/file/l9yjqfg7/Bud4.2.BDR.m1080p-flash.part5.rar

Etiquetas para este tema

Permisos de publicación

  • No puedes crear nuevos temas
  • No puedes responder temas
  • No puedes subir archivos adjuntos
  • No puedes editar tus mensajes
  •