El Hobbit: la desolación de Smaug narra la continuación de la aventura de Bilbo Baggins en su periplo junto al mago Gandalf y trece Enanos liderados por Thorin Escudo de Roble, en una épica búsqueda para recuperar la Montaña Solitaria y el Reino Enano de Erebor.
Tras sobrevivir al inicio de su inesperado viaje, la Compañía sigue hacia el este y se encuentra por el camino con Beorn, el cambiador de piel, y con un enjambre de Arañas gigantes en el peligroso monte Mirkwood. Tras evitar que los Elfos del Bosque los capturen, los Enanos prosiguen su viaje hacia Ciudad del Lago, y finalmente llegan a la Montaña Solitaria, donde tienen que enfrentarse al mayor de los peligros, una criatura más terrorífica que cualquier otra que pondrá a prueba no solo lo profundo de su valentía sino también los límites de su amistad y la sabiduría del viaje: el dragón Smaug.




Título: El Hobbit: La desolación de Smaug
Título original: The Hobbit: The Desolation of Smaug
País: USA
Estreno en USA: 13/12/2013
Estreno en España: 13/12/2013
Lanzamiento en DVD (alquiler): 09/04/2014
Estreno en DVD (venta): 08/04/2014
Blu-Ray 3D: 08/04/2014
Estreno en Blu-ray: 08/04/2014
Productora: New Line Cinema (Warner Bros.), Metro-Goldwyn-Mayer (MGM)
Director: Peter Jackson
Guión: Peter Jackson, Fran Walsh, Guillermo del Toro & Philippa Boyens
Reparto: Ian McKellen, Martin Freeman, Cate Blanchett, Orlando Bloom, Ian Holm, Christopher Lee, Hugo Weaving, Elijah Wood, Andy Serkis, Richard Armitage, Jed Brophy, Adam Brown, John Callen, Stephen Fry, Ryan Gage, Mark Hadlow, Peter Hambleton, Stephen Hunter, William Kircher, Sylvester McCoy, Bret McKenzie, Graham McTavish, Mike Mizrahi, James Nesbitt, Dean O'Gorman, Lee Pace, Mikael Persbrandt, Conan Stevens, Ken Stott, Jeffrey Thomas, Aidan Turner, Luke Evans, Benedict Cumberbatch, Evangeline Lilly, Barry Humphries
Calificación: No recomendada para menores de 12 años
Género: Fantástico. Aventuras. Acción | Espada y brujería. Dragones. Secuela. 3-D

Esta nueva version incluye 25 min mas de metraje y con audio 5.1 Castellano para disfrutarla.


MEDIA INFO

Código:
Format                                   : Matroska
Format version                           : Version 2
File size                                : 4.52 GiB
Duration                                 : 3h 6mn
Overall bit rate                         : 3 469 Kbps
Encoded date                             : UTC 2014-10-21 05:08:55
Writing application                      : mkvmerge v5.0.1 ('Es ist Sommer') built on Oct  9 2011 11:55:43
Writing library                          : libebml v1.2.2 + libmatroska v1.3.0

Video
ID                                       : 1
Format                                   : AVC
Format/Info                              : Advanced Video Codec
Format profile                           : High@L4.1
Format settings, CABAC                   : Yes
Format settings, ReFrames                : 6 frames
Muxing mode                              : Header stripping
Codec ID                                 : V_MPEG4/ISO/AVC
Duration                                 : 3h 6mn
Bit rate                                 : 2 700 Kbps
Width                                    : 1 280 pixels
Height                                   : 532 pixels
Display aspect ratio                     : 2.40:1
Original display aspect ratio            : 2.40:1
Frame rate mode                          : Constant
Frame rate                               : 23.976 fps
Color space                              : YUV
Chroma subsampling                       : 4:2:0
Bit depth                                : 8 bits
Scan type                                : Progressive
Bits/(Pixel*Frame)                       : 0.165
Stream size                              : 3.43 GiB (76%)
Writing library                          : x264 core 130 r2273 b3065e6
Encoding settings                        : cabac=1 / ref=6 / deblock=1:1:1 / analyse=0x3:0x113 / me=hex / subme=7 / psy=1 / psy_rd=0.40:0.00 / mixed_ref=1 / me_range=16 / chroma_me=1 / trellis=1 / 8x8dct=1 / cqm=0 / deadzone=21,11 / fast_pskip=1 / chroma_qp_offset=-2 / threads=24 / lookahead_threads=4 / sliced_threads=0 / nr=0 / decimate=1 / interlaced=0 / bluray_compat=0 / constrained_intra=0 / bframes=5 / b_pyramid=2 / b_adapt=1 / b_bias=0 / direct=1 / weightb=1 / open_gop=0 / weightp=2 / keyint=240 / keyint_min=24 / scenecut=40 / intra_refresh=0 / rc_lookahead=40 / rc=2pass / mbtree=1 / bitrate=2700 / ratetol=1.0 / qcomp=0.60 / qpmin=0 / qpmax=69 / qpstep=4 / cplxblur=20.0 / qblur=0.5 / vbv_maxrate=62500 / vbv_bufsize=78125 / nal_hrd=none / ip_ratio=1.40 / aq=1:0.60
Language                                 : English
Default                                  : Yes
Forced                                   : No
Color primaries                          : BT.709
Transfer characteristics                 : BT.709
Matrix coefficients                      : BT.709

Audio #1
ID                                       : 2
Format                                   : AC-3
Format/Info                              : Audio Coding 3
Mode extension                           : CM (complete main)
Format settings, Endianness              : Big
Muxing mode                              : Header stripping
Codec ID                                 : A_AC3
Duration                                 : 3h 6mn
Bit rate mode                            : Constant
Bit rate                                 : 384 Kbps
Channel count                            : 6 channels
Channel positions                        : Front: L C R, Side: L R, LFE
Sampling rate                            : 48.0 KHz
Bit depth                                : 16 bits
Compression mode                         : Lossy
Stream size                              : 512 MiB (11%)
Language                                 : Spanish
Default                                  : Yes
Forced                                   : No

Audio #2
ID                                       : 3
Format                                   : AC-3
Format/Info                              : Audio Coding 3
Mode extension                           : CM (complete main)
Format settings, Endianness              : Big
Muxing mode                              : Header stripping
Codec ID                                 : A_AC3
Duration                                 : 3h 6mn
Bit rate mode                            : Constant
Bit rate                                 : 384 Kbps
Channel count                            : 6 channels
Channel positions                        : Front: L C R, Side: L R, LFE
Sampling rate                            : 48.0 KHz
Bit depth                                : 16 bits
Compression mode                         : Lossy
Stream size                              : 512 MiB (11%)
Language                                 : English
Default                                  : No
Forced                                   : No

Text #1
ID                                       : 4
Format                                   : UTF-8
Codec ID                                 : S_TEXT/UTF8
Codec ID/Info                            : UTF-8 Plain Text
Title                                    : Esp Forz
Language                                 : Spanish
Default                                  : Yes
Forced                                   : No

Text #2
ID                                       : 5
Format                                   : UTF-8
Codec ID                                 : S_TEXT/UTF8
Codec ID/Info                            : UTF-8 Plain Text
Title                                    : Esp Comp
Language                                 : Spanish
Default                                  : No
Forced                                   : No











1 Link



Código:
http://uploaded.net/file/qk7ca5jb/H0bb1t.d3s0l4ci0n.Sm4ug.V.Ext.BDR.m720p.flash.rar

Links Por Partes



Código:
http://uploaded.net/file/23bzwh5f/H0bb1t.d3s0l4ci0n.Sm4ug.V.Ext.BDR.m720p-flash.part1.rar
http://uploaded.net/file/jmtri9c2/H0bb1t.d3s0l4ci0n.Sm4ug.V.Ext.BDR.m720p-flash.part2.rar
http://uploaded.net/file/1rycidvr/H0bb1t.d3s0l4ci0n.Sm4ug.V.Ext.BDR.m720p-flash.part3.rar
http://uploaded.net/file/p3om1afu/H0bb1t.d3s0l4ci0n.Sm4ug.V.Ext.BDR.m720p-flash.part4.rar
http://uploaded.net/file/mc7bouv3/H0bb1t.d3s0l4ci0n.Sm4ug.V.Ext.BDR.m720p-flash.part5.rar
http://uploaded.net/file/6xlu4qju/H0bb1t.d3s0l4ci0n.Sm4ug.V.Ext.BDR.m720p-flash.part6.rar

Mixto - Uptobox, 1Fichier (Uploaded 100 MB Aproximadamente)




Código:
http://uptobox.com/bt7c948noh7l
http://uptobox.com/fls7w10hpnl1
http://uptobox.com/1ccdbejcjmlu
http://uptobox.com/3x2b35myha2g
http://uptobox.com/st89wkfidjgm
http://uploaded.net/file/6xlu4qju/H0bb1t.d3s0l4ci0n.Sm4ug.V.Ext.BDR.m720p-flash.part6.rar




Código:
http://z8ve4e8y3g.1fichier.com/
http://nm8zccn4mu.1fichier.com/
http://vqnjj0b2bw.1fichier.com/
http://a6g5dqjzzk.1fichier.com/
http://0vua2xp1hh.1fichier.com/
http://uploaded.net/file/6xlu4qju/H0bb1t.d3s0l4ci0n.Sm4ug.V.Ext.BDR.m720p-flash.part6.rar