El Hobbit: la desolación de Smaug narra la continuación de la aventura de Bilbo Baggins en su periplo junto al mago Gandalf y trece Enanos liderados por Thorin Escudo de Roble, en una épica búsqueda para recuperar la Montaña Solitaria y el Reino Enano de Erebor.
Tras sobrevivir al inicio de su inesperado viaje, la Compañía sigue hacia el este y se encuentra por el camino con Beorn, el cambiador de piel, y con un enjambre de Arañas gigantes en el peligroso monte Mirkwood. Tras evitar que los Elfos del Bosque los capturen, los Enanos prosiguen su viaje hacia Ciudad del Lago, y finalmente llegan a la Montaña Solitaria, donde tienen que enfrentarse al mayor de los peligros, una criatura más terrorífica que cualquier otra que pondrá a prueba no solo lo profundo de su valentía sino también los límites de su amistad y la sabiduría del viaje: el dragón Smaug.




Título original:The Hobbit: The Desolation of Smaug (The Hobbit 2) Version Extendida
Año:2013
Duración:186 min.
Director:Peter Jackson
Guión:Philippa Boyens, Peter Jackson, Fran Walsh, Guillermo del Toro (Novela: J.R.R. Tolkien)
Música:Howard Shore
Fotografía:Andrew Lesnie
Reparto:Martin Freeman, Richard Armitage, Ian McKellen, Aidan Turner, Luke Evans, Evangeline Lilly, Ken Stott, Orlando Bloom, Graham McTavish, James Nesbitt, Jed Brophy, Stephen Hunter, Ken Stott, John Callen, Adam Brown, Dean O'Gorman, William Kircher, Peter Hambleton, Mark Hadlow, Lee Pace, Ryan Gage, Stephen Fry, Mikael Persbrandt, Sylvester McCoy, Manu Bennett
Productora:Metro-Goldwyn-Mayer (MGM) / New Line Cinema / WingNut Films
Género:Fantástico. Aventuras. Acción | Espada y brujería. Dragones. Secuela. 3-D

MEDIA INFO

Código:
Format                                   : Matroska
Format version                           : Version 2
File size                                : 6.18 GiB
Duration                                 : 3h 6mn
Overall bit rate                         : 4 742 Kbps
Movie name                               : RD
Encoded date                             : UTC 2014-10-21 05:16:48
Writing application                      : mkvmerge v5.0.1 ('Es ist Sommer') built on Oct  9 2011 11:55:43
Writing library                          : libebml v1.2.2 + libmatroska v1.3.0

Video
ID                                       : 1
Format                                   : AVC
Format/Info                              : Advanced Video Codec
Format profile                           : High@L4.0
Format settings, CABAC                   : Yes
Format settings, ReFrames                : 5 frames
Muxing mode                              : Header stripping
Codec ID                                 : V_MPEG4/ISO/AVC
Duration                                 : 3h 6mn
Bit rate                                 : 3 879 Kbps
Width                                    : 1 916 pixels
Height                                   : 796 pixels
Display aspect ratio                     : 2.40:1
Frame rate mode                          : Constant
Frame rate                               : 23.976 fps
Color space                              : YUV
Chroma subsampling                       : 4:2:0
Bit depth                                : 8 bits
Scan type                                : Progressive
Bits/(Pixel*Frame)                       : 0.106
Stream size                              : 5.05 GiB (82%)
Language                                 : English
Default                                  : Yes
Forced                                   : No
Color primaries                          : BT.709
Transfer characteristics                 : BT.709
Matrix coefficients                      : BT.709

Audio #1
ID                                       : 2
Format                                   : AC-3
Format/Info                              : Audio Coding 3
Mode extension                           : CM (complete main)
Format settings, Endianness              : Big
Muxing mode                              : Header stripping
Codec ID                                 : A_AC3
Duration                                 : 3h 6mn
Bit rate mode                            : Constant
Bit rate                                 : 384 Kbps
Channel count                            : 6 channels
Channel positions                        : Front: L C R, Side: L R, LFE
Sampling rate                            : 48.0 KHz
Bit depth                                : 16 bits
Compression mode                         : Lossy
Stream size                              : 512 MiB (8%)
Language                                 : Spanish
Default                                  : Yes
Forced                                   : No

Audio #2
ID                                       : 3
Format                                   : AC-3
Format/Info                              : Audio Coding 3
Mode extension                           : CM (complete main)
Format settings, Endianness              : Big
Muxing mode                              : Header stripping
Codec ID                                 : A_AC3
Duration                                 : 3h 6mn
Bit rate mode                            : Constant
Bit rate                                 : 384 Kbps
Channel count                            : 6 channels
Channel positions                        : Front: L C R, Side: L R, LFE
Sampling rate                            : 48.0 KHz
Bit depth                                : 16 bits
Compression mode                         : Lossy
Stream size                              : 512 MiB (8%)
Language                                 : English
Default                                  : No
Forced                                   : No

Text #1
ID                                       : 4
Format                                   : UTF-8
Codec ID                                 : S_TEXT/UTF8
Codec ID/Info                            : UTF-8 Plain Text
Title                                    : Esp Forz
Language                                 : Spanish
Default                                  : Yes
Forced                                   : No

Text #2
ID                                       : 5
Format                                   : UTF-8
Codec ID                                 : S_TEXT/UTF8
Codec ID/Info                            : UTF-8 Plain Text
Title                                    : Esp Comp
Language                                 : Spanish
Default                                  : No
Forced                                   : No











Links Por Partes



Código:
http://uploaded.net/file/2l7c0nt8/H0bb1t.Smaug.V.Ext.BDR.m1080p.flash.part01.rar
http://uploaded.net/file/7dbdgx5o/H0bb1t.Smaug.V.Ext.BDR.m1080p.flash.part02.rar
http://uploaded.net/file/ef71tsra/H0bb1t.Smaug.V.Ext.BDR.m1080p.flash.part03.rar
http://uploaded.net/file/6oa554sa/H0bb1t.Smaug.V.Ext.BDR.m1080p.flash.part04.rar
http://uploaded.net/file/9hlwzwup/H0bb1t.Smaug.V.Ext.BDR.m1080p.flash.part05.rar
http://uploaded.net/file/nyvwjx8j/H0bb1t.Smaug.V.Ext.BDR.m1080p.flash.part06.rar
http://uploaded.net/file/pajzib8a/H0bb1t.Smaug.V.Ext.BDR.m1080p.flash.part07.rar
http://uploaded.net/file/6b4qj6s4/H0bb1t.Smaug.V.Ext.BDR.m1080p.flash.part08.rar
http://uploaded.net/file/rdoh6ujb/H0bb1t.Smaug.V.Ext.BDR.m1080p.flash.part09.rar

Mixto - Uptobox, 1Fichier (Uploaded 100 MB Aproximadamente)




Código:
http://uptobox.com/ocbjroee7tz7
http://uptobox.com/45q9xuwuapfh
http://uptobox.com/5a69rqmnq2a4
http://uptobox.com/0268z8d4g0er
http://uptobox.com/zz0qm1vyip4k
http://uptobox.com/5oc7gd5ebbk8
http://uptobox.com/1116t7mzxo9l
http://uptobox.com/6f86o7kfc4dy
http://uploaded.net/file/rdoh6ujb/H0bb1t.Smaug.V.Ext.BDR.m1080p.flash.part09.rar




Código:
http://a2qfyco7d6.1fichier.com/
http://52dpbtn1xb.1fichier.com/
http://ufp5qfv5ji.1fichier.com/
http://6j4w7q7hkp.1fichier.com/
http://ouc0ukzo4d.1fichier.com/
http://7hdmqyjw7r.1fichier.com/
http://avy0dgdw6g.1fichier.com/
http://7tkzlg361h.1fichier.com/
http://uploaded.net/file/rdoh6ujb/H0bb1t.Smaug.V.Ext.BDR.m1080p.flash.part09.rar