T. S. Spivet es un genio de diez años que vive en un rancho de Montana con su peculiar familia. Su gran talento para la cartografía pronto tiene recompensa: una institución científica le concede un prestigioso premio y, con la única compañía de una maleta, se dispone a recorrer el país para plasmarlo en mapas.




Título original: L'extravagant voyage du jeune et prodigieux T. S. Spivet (The Young and Prodigious Spivet)
Año: 2013
Duración: 105 min.
Director: Jean-Pierre Jeunet
Guión: Jean-Pierre Jeunet, Guillaume Laurant (Novela: Reif Larsen)
Música: Denis Sanacore
Fotografía: Thomas Hardmeier
Reparto: Kyle Catlett, Helena Bonham Carter, Robert Maillet, Judy Davis, Callum Keith Rennie, Julian Richings, Rick Mercer, Jakob Davies, Dominique Pinon, Niamh Wilson, Amber Goldfarb
Productora: Coproducción Francia-Canadá
Género: Aventuras. Comedia | Comedia dramática. Road Movie. Infancia. Familia. 3-D

MEDIA INFO

Código:
General

Format                                   : Matroska
Format version                           : Version 2
File size                                : 3.90 GiB
Duration                                 : 1h 45mn
Overall bit rate                         : 5 309 Kbps
Encoded date                             : UTC 2014-10-20 18:41:39
Writing application                      : mkvmerge v5.0.1 ('Es ist Sommer') built on Oct  9 2011 11:55:43
Writing library                          : libebml v1.2.2 + libmatroska v1.3.0

Video
ID                                       : 1
Format                                   : AVC
Format/Info                              : Advanced Video Codec
Format profile                           : High@L4.0
Format settings, CABAC                   : Yes
Format settings, ReFrames                : 4 frames
Muxing mode                              : Header stripping
Codec ID                                 : V_MPEG4/ISO/AVC
Duration                                 : 1h 45mn
Bit rate                                 : 4 300 Kbps
Width                                    : 1 920 pixels
Height                                   : 800 pixels
Display aspect ratio                     : 2.40:1
Frame rate mode                          : Constant
Frame rate                               : 23.976 fps
Color space                              : YUV
Chroma subsampling                       : 4:2:0
Bit depth                                : 8 bits
Scan type                                : Progressive
Bits/(Pixel*Frame)                       : 0.117
Stream size                              : 3.02 GiB (78%)
Writing library                          : x264 core 130 r2273 b3065e6
Encoding settings                        : cabac=1 / ref=4 / deblock=1:-2:-1 / analyse=0x3:0x113 / me=umh / subme=7 / psy=1 / psy_rd=1.00:0.00 / mixed_ref=1 / me_range=32 / chroma_me=1 / trellis=1 / 8x8dct=1 / cqm=0 / deadzone=21,11 / fast_pskip=1 / chroma_qp_offset=-2 / threads=36 / lookahead_threads=6 / sliced_threads=0 / nr=0 / decimate=1 / interlaced=0 / bluray_compat=0 / constrained_intra=0 / bframes=3 / b_pyramid=0 / b_adapt=2 / b_bias=0 / direct=1 / weightb=1 / open_gop=0 / weightp=2 / keyint=240 / keyint_min=24 / scenecut=40 / intra_refresh=0 / rc_lookahead=40 / rc=abr / mbtree=1 / bitrate=4300 / ratetol=1.0 / qcomp=0.60 / qpmin=0 / qpmax=69 / qpstep=4 / ip_ratio=1.40 / aq=1:1.00
Language                                 : Spanish
Default                                  : Yes
Forced                                   : No
Color primaries                          : BT.709
Transfer characteristics                 : BT.709
Matrix coefficients                      : BT.709

Audio #1
ID                                       : 2
Format                                   : AC-3
Format/Info                              : Audio Coding 3
Mode extension                           : CM (complete main)
Format settings, Endianness              : Big
Muxing mode                              : Header stripping
Codec ID                                 : A_AC3
Duration                                 : 1h 45mn
Bit rate mode                            : Constant
Bit rate                                 : 448 Kbps
Channel count                            : 6 channels
Channel positions                        : Front: L C R, Side: L R, LFE
Sampling rate                            : 48.0 KHz
Bit depth                                : 16 bits
Compression mode                         : Lossy
Delay relative to video                  : 16ms
Stream size                              : 337 MiB (8%)
Language                                 : Spanish
Default                                  : Yes
Forced                                   : No

Audio #2
ID                                       : 3
Format                                   : AC-3
Format/Info                              : Audio Coding 3
Mode extension                           : CM (complete main)
Format settings, Endianness              : Big
Muxing mode                              : Header stripping
Codec ID                                 : A_AC3
Duration                                 : 1h 45mn
Bit rate mode                            : Constant
Bit rate                                 : 640 Kbps
Channel count                            : 6 channels
Channel positions                        : Front: L C R, Side: L R, LFE
Sampling rate                            : 48.0 KHz
Bit depth                                : 16 bits
Compression mode                         : Lossy
Stream size                              : 481 MiB (12%)
Language                                 : English
Default                                  : No
Forced                                   : No

Text #1
ID                                       : 4
Format                                   : UTF-8
Codec ID                                 : S_TEXT/UTF8
Codec ID/Info                            : UTF-8 Plain Text
Language                                 : Spanish
Default                                  : No
Forced                                   : No

Text #2
ID                                       : 5
Format                                   : UTF-8
Codec ID                                 : S_TEXT/UTF8
Codec ID/Info                            : UTF-8 Plain Text
Language                                 : English
Default                                  : No
Forced                                   : No











1 Link



Código:
http://uploaded.net/file/y2npve1w/El.3xtr4ord1n4r1o.v1aj3.T.S.Sp1v3t.BDRip.m1080p.flash.rar

Links Por Partes



Código:
http://uploaded.net/file/lldkcrle/El.3xtr4ord1n4r1o.v1aj3.T.S.Sp1v3t.BDRip.m1080p-flash.part1.rar
http://uploaded.net/file/mq9463tt/El.3xtr4ord1n4r1o.v1aj3.T.S.Sp1v3t.BDRip.m1080p-flash.part2.rar
http://uploaded.net/file/qob7vlqn/El.3xtr4ord1n4r1o.v1aj3.T.S.Sp1v3t.BDRip.m1080p-flash.part3.rar
http://uploaded.net/file/6gjpwy68/El.3xtr4ord1n4r1o.v1aj3.T.S.Sp1v3t.BDRip.m1080p-flash.part4.rar
http://uploaded.net/file/bnutpz7i/El.3xtr4ord1n4r1o.v1aj3.T.S.Sp1v3t.BDRip.m1080p-flash.part5.rar

Mixto - Uptobox, 1Fichier (Uploaded 100 MB Aproximadamente)




Código:
http://uptobox.com/gocramob2ocl
http://uptobox.com/vrp8g6zg7lyk
http://uptobox.com/y26t9o0pwcac
http://uptobox.com/qb2a4gasu0zh
http://uploaded.net/file/bnutpz7i/El.3xtr4ord1n4r1o.v1aj3.T.S.Sp1v3t.BDRip.m1080p-flash.part5.rar




Código:
http://r403dz7kt3.1fichier.com/
http://523szgvpuo.1fichier.com/
http://th0llg1ych.1fichier.com/
http://ps543415of.1fichier.com/
http://uploaded.net/file/bnutpz7i/El.3xtr4ord1n4r1o.v1aj3.T.S.Sp1v3t.BDRip.m1080p-flash.part5.rar