T. S. Spivet es un genio de diez años que vive en un rancho de Montana con su peculiar familia. Su gran talento para la cartografía pronto tiene recompensa: una institución científica le concede un prestigioso premio y, con la única compañía de una maleta, se dispone a recorrer el país para plasmarlo en mapas.




Título original: L'extravagant voyage du jeune et prodigieux T. S. Spivet (The Young and Prodigious Spivet)
Año: 2013
Duración: 105 min.
Director: Jean-Pierre Jeunet
Guión: Jean-Pierre Jeunet, Guillaume Laurant (Novela: Reif Larsen)
Música: Denis Sanacore
Fotografía: Thomas Hardmeier
Reparto: Kyle Catlett, Helena Bonham Carter, Robert Maillet, Judy Davis, Callum Keith Rennie, Julian Richings, Rick Mercer, Jakob Davies, Dominique Pinon, Niamh Wilson, Amber Goldfarb
Productora: Coproducción Francia-Canadá
Género: Aventuras. Comedia | Comedia dramática. Road Movie. Infancia. Familia. 3-D

MEDIA INFO

Código:
General

Format                                   : Matroska
Format version                           : Version 2
File size                                : 11.6 GiB
Duration                                 : 1h 45mn
Overall bit rate                         : 15.8 Mbps
Encoded date                             : UTC 2014-10-20 18:17:27
Writing application                      : mkvmerge v5.0.1 ('Es ist Sommer') built on Oct  9 2011 11:55:43
Writing library                          : libebml v1.2.2 + libmatroska v1.3.0

Video
ID                                       : 1
Format                                   : AVC
Format/Info                              : Advanced Video Codec
Format profile                           : High@L4.1
Format settings, CABAC                   : Yes
Format settings, ReFrames                : 5 frames
Muxing mode                              : Header stripping
Codec ID                                 : V_MPEG4/ISO/AVC
Duration                                 : 1h 45mn
Bit rate                                 : 13.5 Mbps
Width                                    : 1 920 pixels
Height                                   : 800 pixels
Display aspect ratio                     : 2.40:1
Frame rate mode                          : Constant
Frame rate                               : 23.976 fps
Color space                              : YUV
Chroma subsampling                       : 4:2:0
Bit depth                                : 8 bits
Scan type                                : Progressive
Bits/(Pixel*Frame)                       : 0.367
Stream size                              : 9.92 GiB (86%)
Writing library                          : x264 core 142 r2431kMod ac76440
Encoding settings                        : cabac=1 / ref=5 / deblock=1:-3:-3 / analyse=0x3:0x133 / me=umh / subme=11 / psy=1 / fade_compensate=0.00 / psy_rd=1.05:0.00 / mixed_ref=1 / me_range=32 / chroma_me=1 / trellis=2 / 8x8dct=1 / cqm=0 / deadzone=21,11 / fast_pskip=0 / chroma_qp_offset=-2 / threads=24 / lookahead_threads=6 / sliced_threads=0 / nr=0 / decimate=0 / interlaced=0 / bluray_compat=0 / constrained_intra=0 / fgo=0 / bframes=12 / b_pyramid=2 / b_adapt=2 / b_bias=0 / direct=3 / weightb=1 / open_gop=0 / weightp=2 / keyint=250 / keyint_min=23 / scenecut=40 / intra_refresh=0 / rc=crf / mbtree=0 / crf=17.0000 / qcomp=0.60 / qpmin=0 / qpmax=69 / qpstep=4 / ip_ratio=1.40 / pb_ratio=1.15 / aq=1:0.70 / zones=49572,51220,crf=16/66964,74365,crf=16/138070,138184,crf=16
Language                                 : English
Default                                  : Yes
Forced                                   : No

Audio #1
ID                                       : 2
Format                                   : AC-3
Format/Info                              : Audio Coding 3
Mode extension                           : CM (complete main)
Format settings, Endianness              : Big
Muxing mode                              : Header stripping
Codec ID                                 : A_AC3
Duration                                 : 1h 45mn
Bit rate mode                            : Constant
Bit rate                                 : 448 Kbps
Channel count                            : 6 channels
Channel positions                        : Front: L C R, Side: L R, LFE
Sampling rate                            : 48.0 KHz
Bit depth                                : 16 bits
Compression mode                         : Lossy
Delay relative to video                  : 16ms
Stream size                              : 337 MiB (3%)
Language                                 : Spanish
Default                                  : Yes
Forced                                   : No

Audio #2
ID                                       : 3
Format                                   : DTS
Format/Info                              : Digital Theater Systems
Mode                                     : 16
Format settings, Endianness              : Big
Muxing mode                              : Header stripping
Codec ID                                 : A_DTS
Duration                                 : 1h 45mn
Bit rate mode                            : Constant
Bit rate                                 : 1 509 Kbps
Channel count                            : 6 channels
Channel positions                        : Front: L C R, Side: L R, LFE
Sampling rate                            : 48.0 KHz
Bit depth                                : 24 bits
Compression mode                         : Lossy
Stream size                              : 1.11 GiB (10%)
Language                                 : English
Default                                  : No
Forced                                   : No

Text #1
ID                                       : 4
Format                                   : UTF-8
Codec ID                                 : S_TEXT/UTF8
Codec ID/Info                            : UTF-8 Plain Text
Language                                 : Spanish
Default                                  : No
Forced                                   : No

Text #2
ID                                       : 5
Format                                   : UTF-8
Codec ID                                 : S_TEXT/UTF8
Codec ID/Info                            : UTF-8 Plain Text
Language                                 : English
Default                                  : No
Forced                                   : No











1 Link




Links Por Partes



Código:
http://uploaded.net/file/recjvpxi/Extr4ord1n4r1o.vi4je.T.S.Sp1v3t.BDRip1080p.flash.part01.rar
http://uploaded.net/file/44y2jjqe/Extr4ord1n4r1o.vi4je.T.S.Sp1v3t.BDRip1080p.flash.part02.rar
http://uploaded.net/file/n0nbkify/Extr4ord1n4r1o.vi4je.T.S.Sp1v3t.BDRip1080p.flash.part03.rar
http://uploaded.net/file/57glcevg/Extr4ord1n4r1o.vi4je.T.S.Sp1v3t.BDRip1080p.flash.part04.rar
http://uploaded.net/file/e07yxogo/Extr4ord1n4r1o.vi4je.T.S.Sp1v3t.BDRip1080p.flash.part05.rar
http://uploaded.net/file/qurkp4m1/Extr4ord1n4r1o.vi4je.T.S.Sp1v3t.BDRip1080p.flash.part06.rar
http://uploaded.net/file/je9opdri/Extr4ord1n4r1o.vi4je.T.S.Sp1v3t.BDRip1080p.flash.part07.rar
http://uploaded.net/file/feos77ih/Extr4ord1n4r1o.vi4je.T.S.Sp1v3t.BDRip1080p.flash.part08.rar
http://uploaded.net/file/j3s0s8kc/Extr4ord1n4r1o.vi4je.T.S.Sp1v3t.BDRip1080p.flash.part09.rar
http://uploaded.net/file/hdy1iids/Extr4ord1n4r1o.vi4je.T.S.Sp1v3t.BDRip1080p.flash.part10.rar
http://uploaded.net/file/elrplcn9/Extr4ord1n4r1o.vi4je.T.S.Sp1v3t.BDRip1080p.flash.part11.rar
http://uploaded.net/file/kfknbet2/Extr4ord1n4r1o.vi4je.T.S.Sp1v3t.BDRip1080p.flash.part12.rar
http://uploaded.net/file/vlepohur/Extr4ord1n4r1o.vi4je.T.S.Sp1v3t.BDRip1080p.flash.part13.rar
http://uploaded.net/file/i0dneoyf/Extr4ord1n4r1o.vi4je.T.S.Sp1v3t.BDRip1080p.flash.part14.rar

Mixto - Uptobox, 1Fichier (Uploaded 100 MB Aproximadamente)




Código:
http://uptobox.com/6ltrxm7avo8j
http://uptobox.com/umnd6wyzglcm
http://uptobox.com/s4jcizapebpo
http://uptobox.com/320v4t5bob72
http://uptobox.com/hhjzkyy7j38o
http://uptobox.com/yv0u1ytdf32n
http://uptobox.com/vt10b8337t3l
http://uptobox.com/hvd6dfvij7ss
http://uptobox.com/ulrhnpp65b36
http://uptobox.com/42rxg7pd8dgo
http://uptobox.com/dsj07uqgh2ec
http://uptobox.com/hcm6sd4qxoq4
http://uptobox.com/urwam5ff5234
http://uploaded.net/file/i0dneoyf/Extr4ord1n4r1o.vi4je.T.S.Sp1v3t.BDRip1080p.flash.part14.rar




Código:
http://fqyo47joss.1fichier.com/
http://e82a9x71gc.1fichier.com/
http://f8gc1pz72r.1fichier.com/
http://l7eoi6vyg1.1fichier.com/
http://zweaf7douk.1fichier.com/
http://lnpoytzvev.1fichier.com/
http://ryz6wozvvn.1fichier.com/
http://18qshh5uxi.1fichier.com/
http://tjjexppnwy.1fichier.com/
http://lzg36rjuzs.1fichier.com/
http://z9psf96jd2.1fichier.com/
http://r64ysnk84k.1fichier.com/
http://hzijdydo0j.1fichier.com/
http://uploaded.net/file/i0dneoyf/Extr4ord1n4r1o.vi4je.T.S.Sp1v3t.BDRip1080p.flash.part14.rar