El joven Dee Renjie llega a la Capital Imperial, e intenta convertirse en agente de policía. La Emperadora Wu, que se encuentra al inicio de su reinado, ha enviado al Detective Yuchi a investigar a un monstruo marino que acecha la ciudad durante la noche. Por casualidad, tanto Dee como Yuchi repelen a la criatura cuando ataca una procesión ceremonial llevándose a la bella cortesana Yin para sacrificarla para apaciguar a los Dioses. Yuchi tiene a Dee apresado. Dee escapa con la ayuda del doctor Shatuo y juntos descubren los estratos más altos de la sociedad, incluyendo al Emperador mismo, son adictos a un té venenoso producido por la famosa casa de tés de Yuan. Yuan, que estaba vinculado románcticamente a Yin, está desaparecido desde hace meses. Dee oculta a la cortesana, quien se encuentra bajo la protección de Yuchun, hasta que el mostruo del mar reaparece. Justo cuando los dos hombres se disponen a matarlo, Yin hará una importante revelación.




Título original: Di Renjie zhi shendu longwang (Young Detective Dee: Rise of the Sea Dragon)
Año: 2013
Duración: 134 min.
Director: Tsui Hark
Guión: Tsui Hark, Kuo-fu Chen, Chia-lu Chang
Música: Kenji Kawai
Fotografía: Sung Fai Choi
Reparto: Mark Chao, Angelababy, Shaofeng Feng, Carina Lau, Kun Chen, Dong Hu, Bum Kim, Chien Sheng
Productora: China Film Co-Production Corporation / Huayi Brothers Media
Género: Acción. Aventuras | Precuela. 3-D

MEDIA INFO

Código:
General

Format                                   : Matroska
Format version                           : Version 2
File size                                : 10.3 GiB
Duration                                 : 2h 13mn
Overall bit rate                         : 11.0 Mbps
Encoded date                             : UTC 2014-10-20 22:08:34
Writing application                      : mkvmerge v5.0.1 ('Es ist Sommer') built on Oct  9 2011 11:55:43
Writing library                          : libebml v1.2.2 + libmatroska v1.3.0

Video
ID                                       : 1
Format                                   : AVC
Format/Info                              : Advanced Video Codec
Format profile                           : High@L4.1
Format settings, CABAC                   : Yes
Format settings, ReFrames                : 5 frames
Muxing mode                              : Header stripping
Codec ID                                 : V_MPEG4/ISO/AVC
Duration                                 : 2h 13mn
Bit rate                                 : 9 040 Kbps
Width                                    : 1 920 pixels
Height                                   : 808 pixels
Display aspect ratio                     : 2.40:1
Frame rate mode                          : Constant
Frame rate                               : 24.000 fps
Color space                              : YUV
Chroma subsampling                       : 4:2:0
Bit depth                                : 8 bits
Scan type                                : Progressive
Bits/(Pixel*Frame)                       : 0.243
Stream size                              : 8.22 GiB (80%)
Writing library                          : x264 core 140 r2377 1ca7bb9
Encoding settings                        : cabac=1 / ref=5 / deblock=1:0:0 / analyse=0x3:0x133 / me=umh / subme=7 / psy=1 / psy_rd=1.00:0.00 / mixed_ref=1 / me_range=16 / chroma_me=1 / trellis=1 / 8x8dct=1 / cqm=0 / deadzone=21,11 / fast_pskip=0 / chroma_qp_offset=-2 / threads=12 / lookahead_threads=2 / sliced_threads=0 / nr=0 / decimate=1 / interlaced=0 / bluray_compat=0 / constrained_intra=0 / bframes=3 / b_pyramid=2 / b_adapt=1 / b_bias=0 / direct=1 / weightb=1 / open_gop=0 / weightp=2 / keyint=250 / keyint_min=23 / scenecut=40 / intra_refresh=0 / rc_lookahead=40 / rc=2pass / mbtree=1 / bitrate=9040 / ratetol=1.0 / qcomp=0.60 / qpmin=0 / qpmax=69 / qpstep=4 / cplxblur=20.0 / qblur=0.5 / ip_ratio=1.40 / aq=1:1.00
Language                                 : English
Default                                  : Yes
Forced                                   : No

Audio #1
ID                                       : 2
Format                                   : AC-3
Format/Info                              : Audio Coding 3
Mode extension                           : CM (complete main)
Format settings, Endianness              : Big
Muxing mode                              : Header stripping
Codec ID                                 : A_AC3
Duration                                 : 2h 13mn
Bit rate mode                            : Constant
Bit rate                                 : 448 Kbps
Channel count                            : 6 channels
Channel positions                        : Front: L C R, Side: L R, LFE
Sampling rate                            : 48.0 KHz
Bit depth                                : 16 bits
Compression mode                         : Lossy
Delay relative to video                  : 16ms
Stream size                              : 428 MiB (4%)
Language                                 : Spanish
Default                                  : Yes
Forced                                   : No

Audio #2
ID                                       : 3
Format                                   : DTS
Format/Info                              : Digital Theater Systems
Mode                                     : 16
Format settings, Endianness              : Big
Muxing mode                              : Header stripping
Codec ID                                 : A_DTS
Duration                                 : 2h 13mn
Bit rate mode                            : Constant
Bit rate                                 : 1 509 Kbps
Channel count                            : 6 channels
Channel positions                        : Front: L C R, Side: L R, LFE
Sampling rate                            : 48.0 KHz
Bit depth                                : 24 bits
Compression mode                         : Lossy
Stream size                              : 1.41 GiB (14%)
Language                                 : English
Default                                  : No
Forced                                   : No

Text #1
ID                                       : 4
Format                                   : UTF-8
Codec ID                                 : S_TEXT/UTF8
Codec ID/Info                            : UTF-8 Plain Text
Language                                 : Spanish
Default                                  : No
Forced                                   : No

Text #2
ID                                       : 5
Format                                   : UTF-8
Codec ID                                 : S_TEXT/UTF8
Codec ID/Info                            : UTF-8 Plain Text
Title                                    : English
Language                                 : English
Default                                  : No
Forced                                   : No

Menu
00:00:00.000                             : en:00:00:00.000
00:07:06.583                             : en:00:07:06.583
00:12:22.292                             : en:00:12:22.292
00:22:21.750                             : en:00:22:21.750
00:32:49.625                             : en:00:32:49.625
00:43:13.375                             : en:00:43:13.375
00:48:36.833                             : en:00:48:36.833
00:57:13.083                             : en:00:57:13.083
01:02:53.708                             : en:01:02:53.708
01:11:31.708                             : en:01:11:31.708
01:17:50.208                             : en:01:17:50.208
01:26:38.000                             : en:01:26:38.000
01:35:11.333                             : en:01:35:11.333
01:41:35.083                             : en:01:41:35.083
01:51:28.750                             : en:01:51:28.750
02:04:16.083                             : en:02:04:16.083











Links Por Partes



Código:
http://uploaded.net/file/dw01yr07/j0v3n.D3t3ct1v3.p0d3r.dr4g0n.m4r1n0.BDRip.1080p.flash.part01.rar
http://uploaded.net/file/5n2r2fmc/j0v3n.D3t3ct1v3.p0d3r.dr4g0n.m4r1n0.BDRip.1080p.flash.part02.rar
http://uploaded.net/file/5vf703f1/j0v3n.D3t3ct1v3.p0d3r.dr4g0n.m4r1n0.BDRip.1080p.flash.part03.rar
http://uploaded.net/file/hvre0lf7/j0v3n.D3t3ct1v3.p0d3r.dr4g0n.m4r1n0.BDRip.1080p.flash.part04.rar
http://uploaded.net/file/yd6tolao/j0v3n.D3t3ct1v3.p0d3r.dr4g0n.m4r1n0.BDRip.1080p.flash.part05.rar
http://uploaded.net/file/woe5mljf/j0v3n.D3t3ct1v3.p0d3r.dr4g0n.m4r1n0.BDRip.1080p.flash.part06.rar
http://uploaded.net/file/zdjdsol3/j0v3n.D3t3ct1v3.p0d3r.dr4g0n.m4r1n0.BDRip.1080p.flash.part07.rar
http://uploaded.net/file/0t9m6zzr/j0v3n.D3t3ct1v3.p0d3r.dr4g0n.m4r1n0.BDRip.1080p.flash.part08.rar
http://uploaded.net/file/ykdj6kpr/j0v3n.D3t3ct1v3.p0d3r.dr4g0n.m4r1n0.BDRip.1080p.flash.part09.rar
http://uploaded.net/file/cz0hto52/j0v3n.D3t3ct1v3.p0d3r.dr4g0n.m4r1n0.BDRip.1080p.flash.part10.rar
http://uploaded.net/file/yscpbb3u/j0v3n.D3t3ct1v3.p0d3r.dr4g0n.m4r1n0.BDRip.1080p.flash.part11.rar
http://uploaded.net/file/kerk11xi/j0v3n.D3t3ct1v3.p0d3r.dr4g0n.m4r1n0.BDRip.1080p.flash.part12.rar

Mixto - Uptobox, 1Fichier (Uploaded 100 MB Aproximadamente)




Código:
http://uptobox.com/8i4bkgme7t20
http://uptobox.com/w7yw54y4jvh4
http://uptobox.com/8bnk9j3il8sk
http://uptobox.com/sj1qhogj6u4g
http://uptobox.com/h0t2g3yesqa2
http://uptobox.com/bzu4yeeh1hns
http://uptobox.com/pqsebal64nf4
http://uptobox.com/8y2ibh57an1f
http://uptobox.com/0u647yv2iawi
http://uptobox.com/kh0qs04pa4zw
http://uptobox.com/x02pf3kg5tac
http://uploaded.net/file/kerk11xi/j0v3n.D3t3ct1v3.p0d3r.dr4g0n.m4r1n0.BDRip.1080p.flash.part12.rar




Código:
http://iv2vzscjpc.1fichier.com/
http://i1prqj8mwz.1fichier.com/
http://7j4jp48pgx.1fichier.com/
http://skzc9zaw7q.1fichier.com/
http://r81cjw7i4a.1fichier.com/
http://rlkyt8kiw8.1fichier.com/
http://tdk5ssvrl2.1fichier.com/
http://gtk28cjf6g.1fichier.com/
http://fvbxsc33mx.1fichier.com/
http://xpjoznlejj.1fichier.com/
http://qdch8r4ypl.1fichier.com/
http://uploaded.net/file/kerk11xi/j0v3n.D3t3ct1v3.p0d3r.dr4g0n.m4r1n0.BDRip.1080p.flash.part12.rar