Un criminal espera a su jefe en un motel de mala muerte, después de matar a varios hombres y huir con una misteriosa bolsa.




Título original: The Bag Man
Año: 2014
Duración: 108 min.
País: Estados Unidos
Director: David Grovic
Guión: Paul Conway, David Grovic
Música: Tony Morales, Edward Rogers
Fotografía: Steve Mason
Reparto: John Cusack, Rebecca da Costa, Robert De Niro, Crispin Glover, Dominic Purcell
Productora: TinRes Entertainment
Género: Thriller | Crimen

MEDIA INFO

Código:
Format                                   : Matroska
Format version                           : Version 2
File size                                : 2.87 GiB
Duration                                 : 1h 48mn
Overall bit rate                         : 3 773 Kbps
Encoded date                             : UTC 2014-10-16 14:30:01
Writing application                      : mkvmerge v5.3.0 ('I could have danced') built on Feb  9 2012 10:38:07
Writing library                          : libebml v1.2.3 + libmatroska v1.3.0

Video
ID                                       : 1
Format                                   : AVC
Format/Info                              : Advanced Video Codec
Format profile                           : High@L4.1
Format settings, CABAC                   : Yes
Format settings, ReFrames                : 5 frames
Codec ID                                 : V_MPEG4/ISO/AVC
Duration                                 : 1h 48mn
Bit rate                                 : 2 750 Kbps
Width                                    : 1 280 pixels
Height                                   : 536 pixels
Display aspect ratio                     : 2.40:1
Frame rate                               : 23.976 fps
Color space                              : YUV
Chroma subsampling                       : 4:2:0
Bit depth                                : 8 bits
Scan type                                : Progressive
Bits/(Pixel*Frame)                       : 0.167
Stream size                              : 2.03 GiB (71%)
Writing library                          : x264 core 138 r2358 9e941d1
Encoding settings                        : cabac=1 / ref=5 / deblock=1:-2:-2 / analyse=0x3:0x113 / me=umh / subme=6 / psy=1 / psy_rd=1.00:0.00 / mixed_ref=1 / me_range=30 / chroma_me=1 / trellis=1 / 8x8dct=1 / cqm=2 / deadzone=21,11 / fast_pskip=0 / chroma_qp_offset=-2 / threads=12 / lookahead_threads=3 / sliced_threads=0 / nr=0 / decimate=0 / interlaced=0 / bluray_compat=0 / constrained_intra=0 / bframes=5 / b_pyramid=2 / b_adapt=2 / b_bias=0 / direct=3 / weightb=1 / open_gop=0 / weightp=2 / keyint=240 / keyint_min=23 / scenecut=40 / intra_refresh=0 / rc_lookahead=50 / rc=2pass / mbtree=1 / bitrate=2750 / ratetol=1.0 / qcomp=0.60 / qpmin=1 / qpmax=63 / qpstep=4 / cplxblur=20.0 / qblur=0.5 / vbv_maxrate=62500 / vbv_bufsize=78125 / nal_hrd=none / ip_ratio=1.40 / aq=1:1.00
Language                                 : Spanish

Audio #1
ID                                       : 2
Format                                   : AC-3
Format/Info                              : Audio Coding 3
Mode extension                           : CM (complete main)
Codec ID                                 : A_AC3
Duration                                 : 1h 48mn
Bit rate mode                            : Constant
Bit rate                                 : 640 Kbps
Channel(s)                               : 6 channels
Channel positions                        : Front: L C R, Side: L R, LFE
Sampling rate                            : 48.0 KHz
Bit depth                                : 16 bits
Compression mode                         : Lossy
Delay relative to video                  : 10s 500ms
Stream size                              : 498 MiB (17%)
Language                                 : Spanish

Audio #2
ID                                       : 3
Format                                   : AC-3
Format/Info                              : Audio Coding 3
Mode extension                           : CM (complete main)
Codec ID                                 : A_AC3
Duration                                 : 1h 48mn
Bit rate mode                            : Constant
Bit rate                                 : 384 Kbps
Channel(s)                               : 6 channels
Channel positions                        : Front: L C R, Side: L R, LFE
Sampling rate                            : 48.0 KHz
Bit depth                                : 16 bits
Compression mode                         : Lossy
Delay relative to video                  : 10s 500ms
Stream size                              : 299 MiB (10%)
Language                                 : English

Text #1
ID                                       : 4
Format                                   : UTF-8
Codec ID                                 : S_TEXT/UTF8
Codec ID/Info                            : UTF-8 Plain Text
Language                                 : Spanish

Text #2
ID                                       : 5
Format                                   : UTF-8
Codec ID                                 : S_TEXT/UTF8
Codec ID/Info                            : UTF-8 Plain Text
Language                                 : English

Menu
00:00:00.000                             : en:00:00:00.000
00:05:34.501                             : en:00:05:34.501
00:10:00.850                             : en:00:10:00.850
00:16:30.156                             : en:00:16:30.156
00:21:09.643                             : en:00:21:09.643
00:26:34.301                             : en:00:26:34.301
00:31:43.318                             : en:00:31:43.318
00:37:17.902                             : en:00:37:17.902
00:42:09.318                             : en:00:42:09.318
00:46:11.268                             : en:00:46:11.268
00:52:23.599                             : en:00:52:23.599
00:57:02.044                             : en:00:57:02.044
01:02:28.453                             : en:01:02:28.453
01:07:49.482                             : en:01:07:49.482
01:12:37.061                             : en:01:12:37.061
01:16:46.727                             : en:01:16:46.727
01:24:15.676                             : en:01:24:15.676
01:30:44.105                             : en:01:30:44.105
01:36:37.083                             : en:01:36:37.083
01:40:53.965                             : en:01:40:53.965
01:42:57.713                             : en:01:42:57.713











1 Link



Código:
http://uploaded.net/file/lzv92hs3/Enc4rg0.BDR.M720p.flash.rar

Links Por Partes



Código:
http://uploaded.net/file/il3472ph/Enc4rg0.BDR.M720p-flash.part1.rar
http://uploaded.net/file/zp4ae8ya/Enc4rg0.BDR.M720p-flash.part2.rar
http://uploaded.net/file/ib05y07t/Enc4rg0.BDR.M720p-flash.part3.rar
http://uploaded.net/file/o65viead/Enc4rg0.BDR.M720p-flash.part4.rar

Mixto - Uptobox, 1Fichier (Uploaded 100 MB Aproximadamente)




Código:
http://uptobox.com/g00v3z6svgap
http://uptobox.com/t0x161nlgc8y
http://uptobox.com/oe3kznalj1br
http://uploaded.net/file/o65viead/Enc4rg0.BDR.M720p-flash.part4.rar



Código:
http://99gsifweih.1fichier.com/
http://u6ntuj22lx.1fichier.com/
http://4supvahih3.1fichier.com/
http://uploaded.net/file/o65viead/Enc4rg0.BDR.M720p-flash.part4.rar