1921. Ewa y su hermana Magda dejan su Polonia natal por la tierra prometida, Nueva York. Cuando llegan a Ellis Island, Magda, enferma de tuberculosis, es colocada en cuarentena. Ewa, sola y desamparada, cae en manos de Bruno, un rufián sin escrúpulos. Para salvar a su hermana, Ewa está dispuesta a aceptar todos los sacrificios y se entrega resignada a la prostitución. La llegada de Orlando, ilusionista y primo de Bruno, le da confianza y esperanza de días mejores. Pero eso era sin contar con los celos de Bruno.




Título: El sueño de Ellis
Título original: The Immigrant
País: USA
Estreno en USA: 16/05/2014
Estreno en España: 27/06/2014
Productora: Kingsgate Films, Worldview Entertainment, Keep Your Head Productions
Director: James Gray
Guión: James Gray
Reparto: Joaquin Phoenix, Jeremy Renner, Marion Cotillard, Dagmara Dominczyk, Angela Sarafyan, Gabriel Rush, Antoni Corone, Ilia Volok, DeeDee Luxe, Glenn Fleshler, Francine Daveta, Susan Gardner, Dylan Hartigan, Julian Murdoch, Liam Ferguson
Calificación: No recomendada para menores de 12 años
Género: Drama | Años 20. Prostitución. Inmigración

Calidad de Video: BDRip m720p 1280x544 By XKlusiveDD®
Calidad de Audio: Castellano AC3 2.0 384kbps By XKlusiveDD® e Ingles AC3 5.1 448kbps
Tamaño: 3.15 GB
Subtitulos: Español e Ingles

MEDIA INFO

Código:
Format                                   : Matroska
Format version                           : Version 2
File size                                : 3.15 GiB
Duration                                 : 1h 57mn
Overall bit rate                         : 3 842 Kbps
Encoded date                             : UTC 2014-10-17 15:32:33
Writing application                      : mkvmerge v5.3.0 ('I could have danced') built on Feb  9 2012 10:38:07
Writing library                          : libebml v1.2.3 + libmatroska v1.3.0

Video
ID                                       : 1
Format                                   : AVC
Format/Info                              : Advanced Video Codec
Format profile                           : High@L4.1
Format settings, CABAC                   : Yes
Format settings, ReFrames                : 5 frames
Codec ID                                 : V_MPEG4/ISO/AVC
Duration                                 : 1h 57mn
Bit rate                                 : 3 010 Kbps
Width                                    : 1 280 pixels
Height                                   : 544 pixels
Display aspect ratio                     : 2.35:1
Frame rate                               : 23.976 fps
Color space                              : YUV
Chroma subsampling                       : 4:2:0
Bit depth                                : 8 bits
Scan type                                : Progressive
Bits/(Pixel*Frame)                       : 0.180
Stream size                              : 2.41 GiB (76%)
Writing library                          : x264 core 120 r2164 da19765
Encoding settings                        : cabac=1 / ref=5 / deblock=1:-3:-3 / analyse=0x3:0x113 / me=umh / subme=9 / psy=1 / psy_rd=1.00:0.00 / mixed_ref=0 / me_range=36 / chroma_me=1 / trellis=2 / 8x8dct=1 / cqm=0 / deadzone=21,11 / fast_pskip=0 / chroma_qp_offset=-2 / threads=6 / sliced_threads=0 / nr=100 / decimate=1 / interlaced=0 / bluray_compat=0 / constrained_intra=0 / bframes=5 / b_pyramid=2 / b_adapt=1 / b_bias=0 / direct=2 / weightb=1 / open_gop=0 / weightp=2 / keyint=240 / keyint_min=23 / scenecut=40 / intra_refresh=0 / rc_lookahead=50 / rc=2pass / mbtree=1 / bitrate=3010 / ratetol=1.0 / qcomp=0.60 / qpmin=0 / qpmax=69 / qpstep=4 / cplxblur=20.0 / qblur=0.5 / vbv_maxrate=31250 / vbv_bufsize=31250 / nal_hrd=none / ip_ratio=1.40 / aq=1:1.00
Language                                 : Spanish

Audio #1
ID                                       : 2
Format                                   : AC-3
Format/Info                              : Audio Coding 3
Mode extension                           : CM (complete main)
Codec ID                                 : A_AC3
Duration                                 : 1h 57mn
Bit rate mode                            : Constant
Bit rate                                 : 384 Kbps
Channel(s)                               : 2 channels
Channel positions                        : Front: L R
Sampling rate                            : 48.0 KHz
Bit depth                                : 16 bits
Compression mode                         : Lossy
Stream size                              : 323 MiB (10%)
Language                                 : Spanish

Audio #2
ID                                       : 3
Format                                   : AC-3
Format/Info                              : Audio Coding 3
Mode extension                           : CM (complete main)
Codec ID                                 : A_AC3
Duration                                 : 1h 57mn
Bit rate mode                            : Constant
Bit rate                                 : 448 Kbps
Channel(s)                               : 6 channels
Channel positions                        : Front: L C R, Side: L R, LFE
Sampling rate                            : 48.0 KHz
Bit depth                                : 16 bits
Compression mode                         : Lossy
Stream size                              : 376 MiB (12%)
Language                                 : English

Text #1
ID                                       : 4
Format                                   : UTF-8
Codec ID                                 : S_TEXT/UTF8
Codec ID/Info                            : UTF-8 Plain Text
Language                                 : Spanish

Text #2
ID                                       : 5
Format                                   : UTF-8
Codec ID                                 : S_TEXT/UTF8
Codec ID/Info                            : UTF-8 Plain Text
Language                                 : English











1 Link



Código:
http://uploaded.net/file/ooeitsnv/su3n0.Ell1s.m720p.flash.rar

Links Por Partes



Código:
http://uploaded.net/file/km37icis/su3n0.Ell1s.m720p-flash.part1.rar
http://uploaded.net/file/bqiyuwz5/su3n0.Ell1s.m720p-flash.part2.rar
http://uploaded.net/file/m342ak6c/su3n0.Ell1s.m720p-flash.part3.rar
http://uploaded.net/file/plvdlxpl/su3n0.Ell1s.m720p-flash.part4.rar
http://uploaded.net/file/tmt44uo3/su3n0.Ell1s.m720p-flash.part5.rar

Mixto - Uptobox, 1Fichier (Uploaded 100 MB Aproximadamente)




Código:
http://uptobox.com/jiob5mcn229k
http://uptobox.com/ptii0fi4oib1
http://uptobox.com/5e2jlhf99s8a
http://uptobox.com/ts6x99s8mp8y
http://uploaded.net/file/tmt44uo3/su3n0.Ell1s.m720p-flash.part5.rar




Código:
http://e00rnzkxp0.1fichier.com/
http://305uijrfy0.1fichier.com/
http://ly7wkygfh5.1fichier.com/
http://htq1nqmykv.1fichier.com/
http://uploaded.net/file/tmt44uo3/su3n0.Ell1s.m720p-flash.part5.rar