1921. Ewa y su hermana Magda dejan su Polonia natal por la tierra prometida, Nueva York. Cuando llegan a Ellis Island, Magda, enferma de tuberculosis, es colocada en cuarentena. Ewa, sola y desamparada, cae en manos de Bruno, un rufián sin escrúpulos. Para salvar a su hermana, Ewa está dispuesta a aceptar todos los sacrificios y se entrega resignada a la prostitución. La llegada de Orlando, ilusionista y primo de Bruno, le da confianza y esperanza de días mejores. Pero eso era sin contar con los celos de Bruno.




Título: El sueño de Ellis
Título original: The Immigrant
País: USA
Estreno en USA: 16/05/2014
Estreno en España: 27/06/2014
Productora: Kingsgate Films, Worldview Entertainment, Keep Your Head Productions
Director: James Gray
Guión: James Gray
Reparto: Joaquin Phoenix, Jeremy Renner, Marion Cotillard, Dagmara Dominczyk, Angela Sarafyan, Gabriel Rush, Antoni Corone, Ilia Volok, DeeDee Luxe, Glenn Fleshler, Francine Daveta, Susan Gardner, Dylan Hartigan, Julian Murdoch, Liam Ferguson
Calificación: No recomendada para menores de 12 años
Género: Drama | Años 20. Prostitución. Inmigración

Calidad de Video: BDRip m1080p 1920x800 By XKlusiveDD®
Calidad de Audio: Castellano AC3 2.0 384kbps By XKlusiveDD® e Ingles AC3 5.1 448kbps
Tamaño: 4.10 GB
Subtitulos: Español e Ingles

MEDIA INFO

Código:
Format                                   : Matroska
Format version                           : Version 2
File size                                : 4.10 GiB
Duration                                 : 1h 57mn
Overall bit rate                         : 4 996 Kbps
Encoded date                             : UTC 2014-10-17 15:34:29
Writing application                      : mkvmerge v5.3.0 ('I could have danced') built on Feb  9 2012 10:38:07
Writing library                          : libebml v1.2.3 + libmatroska v1.3.0

Video
ID                                       : 1
Format                                   : AVC
Format/Info                              : Advanced Video Codec
Format profile                           : High@L4.1
Format settings, CABAC                   : Yes
Format settings, ReFrames                : 3 frames
Codec ID                                 : V_MPEG4/ISO/AVC
Duration                                 : 1h 57mn
Bit rate mode                            : Variable
Bit rate                                 : 4 170 Kbps
Maximum bit rate                         : 14.0 Mbps
Width                                    : 1 920 pixels
Height                                   : 800 pixels
Display aspect ratio                     : 2.40:1
Frame rate                               : 23.976 fps
Color space                              : YUV
Chroma subsampling                       : 4:2:0
Bit depth                                : 8 bits
Scan type                                : Progressive
Bits/(Pixel*Frame)                       : 0.113
Stream size                              : 3.33 GiB (81%)
Writing library                          : x264 core 138 r2358 9e941d1
Encoding settings                        : cabac=1 / ref=3 / deblock=1:-3:-3 / analyse=0x3:0x133 / me=umh / subme=9 / psy=1 / psy_rd=1.00:0.00 / mixed_ref=1 / me_range=18 / chroma_me=1 / trellis=2 / 8x8dct=1 / cqm=0 / deadzone=21,11 / fast_pskip=0 / chroma_qp_offset=-2 / threads=12 / lookahead_threads=1 / sliced_threads=0 / slices=4 / nr=0 / decimate=1 / interlaced=0 / bluray_compat=1 / constrained_intra=0 / bframes=3 / b_pyramid=1 / b_adapt=2 / b_bias=0 / direct=1 / weightb=1 / open_gop=1 / weightp=1 / keyint=23 / keyint_min=1 / scenecut=40 / intra_refresh=0 / rc_lookahead=23 / rc=2pass / mbtree=1 / bitrate=4170 / ratetol=1.0 / qcomp=0.60 / qpmin=0 / qpmax=69 / qpstep=4 / cplxblur=20.0 / qblur=0.5 / vbv_maxrate=14000 / vbv_bufsize=14000 / nal_hrd=vbr / ip_ratio=1.40 / aq=1:1.00
Language                                 : Spanish

Audio #1
ID                                       : 2
Format                                   : AC-3
Format/Info                              : Audio Coding 3
Mode extension                           : CM (complete main)
Codec ID                                 : A_AC3
Duration                                 : 1h 57mn
Bit rate mode                            : Constant
Bit rate                                 : 384 Kbps
Channel(s)                               : 2 channels
Channel positions                        : Front: L R
Sampling rate                            : 48.0 KHz
Bit depth                                : 16 bits
Compression mode                         : Lossy
Stream size                              : 323 MiB (8%)
Language                                 : Spanish

Audio #2
ID                                       : 3
Format                                   : AC-3
Format/Info                              : Audio Coding 3
Mode extension                           : CM (complete main)
Codec ID                                 : A_AC3
Duration                                 : 1h 57mn
Bit rate mode                            : Constant
Bit rate                                 : 448 Kbps
Channel(s)                               : 6 channels
Channel positions                        : Front: L C R, Side: L R, LFE
Sampling rate                            : 48.0 KHz
Bit depth                                : 16 bits
Compression mode                         : Lossy
Stream size                              : 376 MiB (9%)
Language                                 : English

Text #1
ID                                       : 4
Format                                   : UTF-8
Codec ID                                 : S_TEXT/UTF8
Codec ID/Info                            : UTF-8 Plain Text
Language                                 : Spanish

Text #2
ID                                       : 5
Format                                   : UTF-8
Codec ID                                 : S_TEXT/UTF8
Codec ID/Info                            : UTF-8 Plain Text
Language                                 : English











1 Link



Código:
http://uploaded.net/file/aayveeyt/Su3n0.Ell1s.BDR.M1080p.flash.rar

Links Por Partes



Código:
http://uploaded.net/file/es4dznzi/Su3n0.Ell1s.BDR.M1080p-flash.part1.rar
http://uploaded.net/file/jz26evcu/Su3n0.Ell1s.BDR.M1080p-flash.part2.rar
http://uploaded.net/file/lzz2aey0/Su3n0.Ell1s.BDR.M1080p-flash.part3.rar
http://uploaded.net/file/q8of81uc/Su3n0.Ell1s.BDR.M1080p-flash.part4.rar
http://uploaded.net/file/qnzcmbkh/Su3n0.Ell1s.BDR.M1080p-flash.part5.rar
http://uploaded.net/file/lz25fc01/Su3n0.Ell1s.BDR.M1080p-flash.part6.rar

Mixto - Uptobox, 1Fichier (Uploaded 100 MB Aproximadamente)




Código:
http://uptobox.com/251bf70vk10y
http://uptobox.com/1hra8h9brinx
http://uptobox.com/m9wxb8i9if66
http://uptobox.com/lutp5rw6q71l
http://uptobox.com/p3wnrg6c8a2d
http://uploaded.net/file/lz25fc01/Su3n0.Ell1s.BDR.M1080p-flash.part6.rar




Código:
http://h8fr9p6fdp.1fichier.com/
http://9sz904hiwu.1fichier.com/
http://5uxcxc59yi.1fichier.com/
http://pvwrpq9gs5.1fichier.com/
http://dt31kinuyv.1fichier.com/
http://uploaded.net/file/lz25fc01/Su3n0.Ell1s.BDR.M1080p-flash.part6.rar