Tras salir de la cárcel, el criminal Paul Maguire, interpretado por Nicolas Cage ('La Búsqueda', 'Kick-Ass'), es un hombre nuevo. Reformado y con la intención de encaminar su vida, vuelve a casa para reunirse con su hija. Pero la desolación y la irá se apoderarán de él cuando se de cuenta de que su pequeña ha sido secuestrada por la mafia rusa. Repleto de venganza, acude a su antiguo equipo para una última misión. En su camino por rescatar a la joven, emprenderá paralelamente una lucha personal contra quienes se atreven a quebrantar de esa forma la ley. No hay reglas ni normas, solo su propia visión de la justicia y su empeño por la supervivencia de su familia. Entre la espada y la pared, buscará y encontrará la forma de ignorar lo que se debería hacer y actuar conforme a sus propias normas morales. Gangsters armados hasta los dientes se interponen entre él y su hija, pero no será suficiente para hacer lo que haga falta con tal de rescatarla y darles una lección.




Título: Tokarev
Título original: Tokarev
País: USA
Estreno en USA:
Estreno en España: 27/06/2014
Lanzamiento en DVD (alquiler): 16/10/2014
Productora: Hannibal Pictures
Director: Paco Cabezas
Guión: Jim Agnew, Sean Keller
Reparto: Nicolas Cage, Rachel Nichols, Peter Stormare, Danny Glover, Aubrey Peeples, Elena Sanchez, Pasha D. Lychnikoff, Michael McGrady, Max Ryan, Judd Lormand, Dawn Hamil, Max Fowler, Weston Cage, Sarah Ann Schultz, Paul Sampson

Calidad de Video: BDRip m1080p 1920x816 By XKlusiveDD®
Calidad de Audio: Castellano AC3 5.1 448kbps By XKlusiveDD® e Ingles AC3 5.1 448kbps
Tamaño: 3.20 GB
Subtitulos: Español e Ingles Completos.

MEDIA INFO

Código:
Format                           : Matroska
File size                        : 3.19 GiB
Duration                         : 1h 38mn
Overall bit rate                 : 4 645 Kbps
Encoded date                     : UTC 2014-10-15 19:06:44
Writing application              : mkvmerge v5.3.0 ('I could have danced') built on Feb  9 2012 10:38:07
Writing library                  : libebml v1.2.3 + libmatroska v1.3.0

Video
ID                               : 1
Format                           : AVC
Format/Info                      : Advanced Video Codec
Format profile                   : High@L4.1
Format settings, CABAC           : Yes
Format settings, ReFrames        : 5 frames
Codec ID                         : V_MPEG4/ISO/AVC
Duration                         : 1h 38mn
Bit rate                         : 3 750 Kbps
Width                            : 1 920 pixels
Height                           : 816 pixels
Display aspect ratio             : 2.35:1
Frame rate                       : 23.976 fps
Color space                      : YUV
Chroma subsampling               : 4:2:0
Bit depth                        : 8 bits
Scan type                        : Progressive
Bits/(Pixel*Frame)               : 0.100
Stream size                      : 2.51 GiB (79%)
Writing library                  : x264 core 142 r2431 ac76440
Encoding settings                : cabac=1 / ref=5 / deblock=1:-1:-1 / analyse=0x3:0x113 / me=umh / subme=6 / psy=1 / psy_rd=1.00:0.00 / mixed_ref=1 / me_range=30 / chroma_me=1 / trellis=1 / 8x8dct=1 / cqm=2 / deadzone=21,11 / fast_pskip=0 / chroma_qp_offset=-2 / threads=12 / lookahead_threads=3 / sliced_threads=0 / nr=0 / decimate=0 / interlaced=0 / bluray_compat=0 / constrained_intra=0 / bframes=5 / b_pyramid=2 / b_adapt=2 / b_bias=0 / direct=3 / weightb=1 / open_gop=0 / weightp=2 / keyint=240 / keyint_min=23 / scenecut=40 / intra_refresh=0 / rc_lookahead=50 / rc=2pass / mbtree=1 / bitrate=3750 / ratetol=1.0 / qcomp=0.60 / qpmin=1 / qpmax=69 / qpstep=4 / cplxblur=20.0 / qblur=0.5 / vbv_maxrate=62500 / vbv_bufsize=78125 / nal_hrd=none / filler=0 / ip_ratio=1.40 / aq=1:1.00
Language                         : Spanish

Audio #1
ID                               : 2
Format                           : AC-3
Format/Info                      : Audio Coding 3
Mode extension                   : CM (complete main)
Codec ID                         : A_AC3
Duration                         : 1h 38mn
Bit rate mode                    : Constant
Bit rate                         : 448 Kbps
Channel(s)                       : 6 channels
Channel positions                : Front: L C R, Side: L R, LFE
Sampling rate                    : 48.0 KHz
Bit depth                        : 16 bits
Compression mode                 : Lossy
Delay relative to video          : 1s 0ms
Stream size                      : 315 MiB (10%)
Language                         : Spanish

Audio #2
ID                               : 3
Format                           : AC-3
Format/Info                      : Audio Coding 3
Mode extension                   : CM (complete main)
Codec ID                         : A_AC3
Duration                         : 1h 38mn
Bit rate mode                    : Constant
Bit rate                         : 448 Kbps
Channel(s)                       : 6 channels
Channel positions                : Front: L C R, Side: L R, LFE
Sampling rate                    : 48.0 KHz
Bit depth                        : 16 bits
Compression mode                 : Lossy
Stream size                      : 315 MiB (10%)
Language                         : English

Text #1
ID                               : 4
Format                           : UTF-8
Codec ID                         : S_TEXT/UTF8
Codec ID/Info                    : UTF-8 Plain Text
Language                         : Spanish

Text #2
ID                               : 5
Format                           : UTF-8
Codec ID                         : S_TEXT/UTF8
Codec ID/Info                    : UTF-8 Plain Text
Language                         : English

Menu
00:00:00.000                     : en:00:00:00.000
00:08:35.598                     : en:00:08:35.598
00:16:44.295                     : en:00:16:44.295
00:24:59.998                     : en:00:24:59.998
00:37:21.448                     : en:00:37:21.448
00:42:16.200                     : en:00:42:16.200
00:48:20.356                     : en:00:48:20.356
00:55:27.032                     : en:00:55:27.032
01:07:48.731                     : en:01:07:48.731
01:13:20.146                     : en:01:13:20.146
01:19:58.711                     : en:01:19:58.711
01:27:23.071                     : en:01:27:23.071











1 Link



Código:
http://uploaded.net/file/jwx9xc3t/T0k4r3v.BDR.M1080p.flash.rar

Links Por Partes



Código:
http://uploaded.net/file/icrf82ln/T0k4r3v.BDR.M1080p-flash.part1.rar
http://uploaded.net/file/l8qjvcxz/T0k4r3v.BDR.M1080p-flash.part2.rar
http://uploaded.net/file/vqe6enos/T0k4r3v.BDR.M1080p-flash.part3.rar
http://uploaded.net/file/l4p1m8ab/T0k4r3v.BDR.M1080p-flash.part4.rar
http://uploaded.net/file/8loiytc2/T0k4r3v.BDR.M1080p-flash.part5.rar

Mixto - Uptobox, 1Fichier (Uploaded 100 MB Aproximadamente)




Código:
http://uptobox.com/un2kyr0htypa
http://uptobox.com/zpekincso40e
http://uptobox.com/9tqxn1lz8iyx
http://uptobox.com/u28lt8wdcw43
http://uploaded.net/file/8loiytc2/T0k4r3v.BDR.M1080p-flash.part5.rar




Código:
http://88tlcpns3m.1fichier.com/
http://5sdhzc0w89.1fichier.com/
http://lplg1e7dss.1fichier.com/
http://4hftq47pki.1fichier.com/
http://uploaded.net/file/8loiytc2/T0k4r3v.BDR.M1080p-flash.part5.rar