Se esconden en los bosques y nos necesitan muertos para continuar su reinado. Cris y Jose lo ignoran pero están a punto de entrar en los dominios de El Reverendo. Correr no servirá de nada.




Título original: Los olvidados
Año: 2014
Duración: 64 min.
País: España España
Director: Manuel León Caballero
Guión: Manuel León Caballero
Reparto: Saida Fuentes, Jose Manuel Trujillo, Cristina Piñero and Jonás Domínguez, Jose Luis De Madariaga
Género: Terror | Slasher

Formato: Matroska m720p
Tamaño: 1.75 GB
Resolución: 1280x528
Audio 1: AC3 2.0 384 Kbps Castellano

Nota: Contiene subtitulos ingles pegados al video

MEDIA INFO

Código:
Format                                   : Matroska
Format version                           : Version 2
File size                                : 1.75 GiB
Duration                                 : 1h 4mn
Overall bit rate                         : 3 888 Kbps
Encoded date                             : UTC 2014-10-14 17:40:42
Writing application                      : mkvmerge v5.3.0 ('I could have danced') built on Feb  9 2012 10:38:07
Writing library                          : libebml v1.2.3 + libmatroska v1.3.0

Video
ID                                       : 1
Format                                   : AVC
Format/Info                              : Advanced Video Codec
Format profile                           : High@L3.1
Format settings, CABAC                   : Yes
Format settings, ReFrames                : 4 frames
Codec ID                                 : V_MPEG4/ISO/AVC
Duration                                 : 1h 4mn
Bit rate                                 : 3 503 Kbps
Width                                    : 1 280 pixels
Height                                   : 528 pixels
Display aspect ratio                     : 2.40:1
Frame rate mode                          : Constant
Frame rate                               : 25.000 fps
Color space                              : YUV
Chroma subsampling                       : 4:2:0
Bit depth                                : 8 bits
Scan type                                : Progressive
Bits/(Pixel*Frame)                       : 0.207
Stream size                              : 1.54 GiB (88%)
Writing library                          : x264 core 130 r2273 b3065e6
Encoding settings                        : cabac=1 / ref=4 / deblock=1:-2:-1 / analyse=0x3:0x113 / me=umh / subme=7 / psy=1 / psy_rd=1.00:0.00 / mixed_ref=1 / me_range=32 / chroma_me=1 / trellis=1 / 8x8dct=1 / cqm=0 / deadzone=21,11 / fast_pskip=1 / chroma_qp_offset=-2 / threads=6 / lookahead_threads=1 / sliced_threads=0 / nr=0 / decimate=1 / interlaced=0 / bluray_compat=0 / constrained_intra=0 / bframes=3 / b_pyramid=0 / b_adapt=1 / b_bias=0 / direct=1 / weightb=1 / open_gop=0 / weightp=2 / keyint=250 / keyint_min=25 / scenecut=40 / intra_refresh=0 / rc_lookahead=40 / rc=2pass / mbtree=1 / bitrate=3503 / ratetol=1.0 / qcomp=0.60 / qpmin=0 / qpmax=69 / qpstep=4 / cplxblur=20.0 / qblur=0.5 / ip_ratio=1.40 / aq=1:1.00
Language                                 : Spanish
Default                                  : Yes
Forced                                   : No
Color primaries                          : BT.709
Transfer characteristics                 : BT.709
Matrix coefficients                      : BT.709

Audio
ID                                       : 2
Format                                   : AC-3
Format/Info                              : Audio Coding 3
Mode extension                           : CM (complete main)
Format settings, Endianness              : Big
Codec ID                                 : A_AC3
Duration                                 : 1h 4mn
Bit rate mode                            : Constant
Bit rate                                 : 384 Kbps
Channel(s)                               : 2 channels
Channel positions                        : Front: L R
Sampling rate                            : 48.0 KHz
Bit depth                                : 16 bits
Compression mode                         : Lossy
Stream size                              : 177 MiB (10%)
Language                                 : Spanish
Default                                  : Yes
Forced                                   : No











1 Link



Código:
http://uploaded.net/file/kzetcndb/L0sOlv1da0s.Web.m720p.flash.rar

Links Por Partes



Código:
http://uploaded.net/file/1uhtvwet/L0sOlv1da0s.Web.m720p-flash.part1.rar
http://uploaded.net/file/ceikahmi/L0sOlv1da0s.Web.m720p-flash.part2.rar
http://uploaded.net/file/k5ti6kgv/L0sOlv1da0s.Web.m720p-flash.part3.rar

Mixto - Uptobox, 1Fichier (Uploaded 100 MB Aproximadamente)




Código:
http://uptobox.com/r8c8lif5afw5
http://uptobox.com/fxi0cw3viq6u
http://uploaded.net/file/k5ti6kgv/L0sOlv1da0s.Web.m720p-flash.part3.rar




Código:
http://qo97mra3l5.1fichier.com/
http://2tjqi2in91.1fichier.com/
http://uploaded.net/file/k5ti6kgv/L0sOlv1da0s.Web.m720p-flash.part3.rar