Dos buenos amigos, Davy y Ally,vuelven a sus vidas en Edimburgo tras cumplir el servicio en la guerra de Afganistán. Ambos continúan sus relaciones de pareja: Ally con Liz (Freya Mavor) y Davy con Yvonne (Antonia Thomas). Mientras tanto, los padres de Davy, Rab y Jean están ocupados planeando sus bodas de plata. Todo va bien hasta que una revelación del pasado de Rab amenaza con destruir a la familia y separar a las tres parejas.




Título original:Sunshine on Leith
Año:2013
Duración:100min
Director: Dexter Fletcher
Guión: Stephen Greenhorn
Música:Paul Englishby
Fotografía: George Richmond
Reparto: Peter Mullan, Antonia Thomas, Jason Flemyng, Freya Mavor, Jane Horrocks, Paul Brannigan, George MacKay, Kevin Guthrie, John Spence, Robert Yates
Productora:Black Camel Pictures / DNA Films
Género:Musical. Romance. Comedia. Drama | Drama romántico. Comedia romántica

MEDIA INFO

Código:
Format                                   : Matroska
Format version                           : Version 2
File size                                : 2.63 GiB
Duration                                 : 1h 39mn
Overall bit rate                         : 3 778 Kbps
Encoded date                             : UTC 2014-10-09 22:58:32
Writing application                      : mkvmerge v5.0.1 ('Es ist Sommer') built on Oct  9 2011 11:55:43
Writing library                          : libebml v1.2.2 + libmatroska v1.3.0


Video
ID                                       : 1
Format                                   : AVC
Format/Info                              : Advanced Video Codec
Format profile                           : High@L3.1
Format settings, CABAC                   : Yes
Format settings, ReFrames                : 4 frames
Codec ID                                 : V_MPEG4/ISO/AVC
Duration                                 : 1h 39mn
Bit rate                                 : 2 500 Kbps
Width                                    : 1 280 pixels
Height                                   : 528 pixels
Display aspect ratio                     : 2.40:1
Frame rate mode                          : Constant
Frame rate                               : 23.976 fps
Color space                              : YUV
Chroma subsampling                       : 4:2:0
Bit depth                                : 8 bits
Scan type                                : Progressive
Bits/(Pixel*Frame)                       : 0.154
Stream size                              : 1.69 GiB (64%)
Writing library                          : x264 core 130 r2273 b3065e6
Encoding settings                        : cabac=1 / ref=4 / deblock=1:-1:-1 / analyse=0x3:0x113 / me=hex / subme=9 / psy=1 / psy_rd=1.00:0.00 / mixed_ref=1 / me_range=16 / chroma_me=1 / trellis=1 / 8x8dct=1 / cqm=0 / deadzone=21,11 / fast_pskip=1 / chroma_qp_offset=-2 / threads=24 / lookahead_threads=2 / sliced_threads=0 / nr=0 / decimate=1 / interlaced=0 / bluray_compat=0 / constrained_intra=0 / bframes=4 / b_pyramid=2 / b_adapt=1 / b_bias=0 / direct=1 / weightb=1 / open_gop=0 / weightp=2 / keyint=240 / keyint_min=24 / scenecut=40 / intra_refresh=0 / rc_lookahead=40 / rc=2pass / mbtree=1 / bitrate=2500 / ratetol=1.0 / qcomp=0.60 / qpmin=0 / qpmax=69 / qpstep=4 / cplxblur=20.0 / qblur=0.5 / ip_ratio=1.40 / aq=1:1.00
Language                                 : English
Default                                  : Yes
Forced                                   : No
Color primaries                          : BT.709
Transfer characteristics                 : BT.709
Matrix coefficients                      : BT.709


Audio #1
ID                                       : 2
Format                                   : AC-3
Format/Info                              : Audio Coding 3
Mode extension                           : CM (complete main)
Format settings, Endianness              : Big
Codec ID                                 : A_AC3
Duration                                 : 1h 39mn
Bit rate mode                            : Constant
Bit rate                                 : 640 Kbps
Channel count                            : 6 channels
Channel positions                        : Front: L C R, Side: L R, LFE
Sampling rate                            : 48.0 KHz
Bit depth                                : 16 bits
Compression mode                         : Lossy
Stream size                              : 457 MiB (17%)
Language                                 : Spanish
Default                                  : No
Forced                                   : Yes


Audio #2
ID                                       : 3
Format                                   : AC-3
Format/Info                              : Audio Coding 3
Mode extension                           : CM (complete main)
Format settings, Endianness              : Big
Codec ID                                 : A_AC3
Duration                                 : 1h 39mn
Bit rate mode                            : Constant
Bit rate                                 : 640 Kbps
Channel count                            : 6 channels
Channel positions                        : Front: L C R, Side: L R, LFE
Sampling rate                            : 48.0 KHz
Bit depth                                : 16 bits
Compression mode                         : Lossy
Stream size                              : 457 MiB (17%)
Language                                 : English
Default                                  : No
Forced                                   : No


Text #1
ID                                       : 4
Format                                   : UTF-8
Codec ID                                 : S_TEXT/UTF8
Codec ID/Info                            : UTF-8 Plain Text
Language                                 : English
Default                                  : No
Forced                                   : No


Text #2
ID                                       : 5
Format                                   : UTF-8
Codec ID                                 : S_TEXT/UTF8
Codec ID/Info                            : UTF-8 Plain Text
Language                                 : Spanish
Default                                  : No
Forced                                   : No











1 Link



Código:
http://uploaded.net/file/5x8b91w8/Am4n3c3r.Ed1mburg0.BDR.M1Cr0.720.flash.rar

Links Por Partes



Código:
http://uploaded.net/file/lncbhwvm/Am4n3c3r.Ed1mburg0.BDR.M1Cr0.720-flash.part1.rar
http://uploaded.net/file/yxt7okw3/Am4n3c3r.Ed1mburg0.BDR.M1Cr0.720-flash.part2.rar
http://uploaded.net/file/swz2hjp2/Am4n3c3r.Ed1mburg0.BDR.M1Cr0.720-flash.part3.rar
http://uploaded.net/file/3urubli0/Am4n3c3r.Ed1mburg0.BDR.M1Cr0.720-flash.part4.rar

Mixto - Uptobox, 1Fichier (Uploaded 100 MB Aproximadamente)




Código:
http://uptobox.com/jygnkh6pt7q0
http://uptobox.com/3xrc16mxap6c
http://uptobox.com/1iw8g6s7vgy9
http://uploaded.net/file/3urubli0/Am4n3c3r.Ed1mburg0.BDR.M1Cr0.720-flash.part4.rar




Código:
http://4djlpjg18s.1fichier.com/
http://c950fpzbea.1fichier.com/
http://won2kai2qv.1fichier.com/
http://uploaded.net/file/3urubli0/Am4n3c3r.Ed1mburg0.BDR.M1Cr0.720-flash.part4.rar