Dos buenos amigos, Davy y Ally,vuelven a sus vidas en Edimburgo tras cumplir el servicio en la guerra de Afganistán. Ambos continúan sus relaciones de pareja: Ally con Liz (Freya Mavor) y Davy con Yvonne (Antonia Thomas). Mientras tanto, los padres de Davy, Rab y Jean están ocupados planeando sus bodas de plata. Todo va bien hasta que una revelación del pasado de Rab amenaza con destruir a la familia y separar a las tres parejas.




Título original:Sunshine on Leith
Año:2013
Duración:100min
Director:Dexter Fletcher
Guión: Stephen Greenhorn
Música:Paul Englishby
Fotografía: George Richmond
Reparto: Peter Mullan, Antonia Thomas, Jason Flemyng, Freya Mavor, Jane Horrocks, Paul Brannigan, George MacKay, Kevin Guthrie, John Spence, Robert Yates
Productora:Black Camel Pictures / DNA Films
Género: Musical. Romance. Comedia. Drama | Drama romántico. Comedia romántica

MEDIA INFO

Código:
Format                                   : Matroska
Format version                           : Version 2
File size                                : 4.03 GiB
Duration                                 : 1h 39mn
Overall bit rate                         : 5 781 Kbps
Encoded date                             : UTC 2014-10-09 22:56:16
Writing application                      : mkvmerge v5.0.1 ('Es ist Sommer') built on Oct  9 2011 11:55:43
Writing library                          : libebml v1.2.2 + libmatroska v1.3.0


Video
ID                                       : 1
Format                                   : AVC
Format/Info                              : Advanced Video Codec
Format profile                           : High@L4.1
Format settings, CABAC                   : Yes
Format settings, ReFrames                : 5 frames
Codec ID                                 : V_MPEG4/ISO/AVC
Duration                                 : 1h 39mn
Bit rate                                 : 4 386 Kbps
Width                                    : 1 920 pixels
Height                                   : 800 pixels
Display aspect ratio                     : 2.40:1
Frame rate mode                          : Constant
Frame rate                               : 23.976 fps
Color space                              : YUV
Chroma subsampling                       : 4:2:0
Bit depth                                : 8 bits
Scan type                                : Progressive
Bits/(Pixel*Frame)                       : 0.119
Stream size                              : 3.06 GiB (76%)
Writing library                          : x264 core 142 r2431 ac76440
Encoding settings                        : cabac=1 / ref=5 / deblock=1:-3:-3 / analyse=0x3:0x113 / me=umh / subme=7 / psy=1 / psy_rd=1.00:0.15 / mixed_ref=1 / me_range=24 / chroma_me=1 / trellis=2 / 8x8dct=1 / cqm=0 / deadzone=21,11 / fast_pskip=1 / chroma_qp_offset=-3 / threads=24 / lookahead_threads=4 / sliced_threads=0 / nr=0 / decimate=1 / interlaced=0 / bluray_compat=0 / constrained_intra=0 / bframes=3 / b_pyramid=2 / b_adapt=2 / b_bias=0 / direct=3 / weightb=1 / open_gop=0 / weightp=2 / keyint=240 / keyint_min=23 / scenecut=40 / intra_refresh=0 / rc_lookahead=40 / rc=crf / mbtree=1 / crf=19.7 / qcomp=0.60 / qpmin=10 / qpmax=51 / qpstep=4 / vbv_maxrate=50000 / vbv_bufsize=50000 / crf_max=0.0 / nal_hrd=none / filler=0 / ip_ratio=1.40 / aq=1:1.00
Language                                 : English
Default                                  : Yes
Forced                                   : No


Audio #1
ID                                       : 2
Format                                   : AC-3
Format/Info                              : Audio Coding 3
Mode extension                           : CM (complete main)
Format settings, Endianness              : Big
Codec ID                                 : A_AC3
Duration                                 : 1h 39mn
Bit rate mode                            : Constant
Bit rate                                 : 640 Kbps
Channel count                            : 6 channels
Channel positions                        : Front: L C R, Side: L R, LFE
Sampling rate                            : 48.0 KHz
Bit depth                                : 16 bits
Compression mode                         : Lossy
Stream size                              : 457 MiB (11%)
Language                                 : Spanish
Default                                  : No
Forced                                   : Yes


Audio #2
ID                                       : 3
Format                                   : AC-3
Format/Info                              : Audio Coding 3
Mode extension                           : CM (complete main)
Format settings, Endianness              : Big
Codec ID                                 : A_AC3
Duration                                 : 1h 39mn
Bit rate mode                            : Constant
Bit rate                                 : 640 Kbps
Channel count                            : 6 channels
Channel positions                        : Front: L C R, Side: L R, LFE
Sampling rate                            : 48.0 KHz
Bit depth                                : 16 bits
Compression mode                         : Lossy
Stream size                              : 457 MiB (11%)
Language                                 : English
Default                                  : No
Forced                                   : No


Text #1
ID                                       : 4
Format                                   : UTF-8
Codec ID                                 : S_TEXT/UTF8
Codec ID/Info                            : UTF-8 Plain Text
Language                                 : English
Default                                  : No
Forced                                   : No


Text #2
ID                                       : 5
Format                                   : UTF-8
Codec ID                                 : S_TEXT/UTF8
Codec ID/Info                            : UTF-8 Plain Text
Language                                 : Spanish
Default                                  : No
Forced                                   : No











1 Link



Código:
http://uploaded.net/file/8dyr0at5/Am4n3cer.Ed1mbrg0.BD.Micro.1080p.flash.rar

Links Por Partes



Código:
http://uploaded.net/file/tsk8a8sl/Am4n3cer.Ed1mbrg0.BD.Micro.1080p-flash.part1.rar
http://uploaded.net/file/vbd5t99k/Am4n3cer.Ed1mbrg0.BD.Micro.1080p-flash.part2.rar
http://uploaded.net/file/yugnb9b0/Am4n3cer.Ed1mbrg0.BD.Micro.1080p-flash.part3.rar
http://uploaded.net/file/34wvekpt/Am4n3cer.Ed1mbrg0.BD.Micro.1080p-flash.part4.rar
http://uploaded.net/file/b8j8gi2f/Am4n3cer.Ed1mbrg0.BD.Micro.1080p-flash.part5.rar
http://uploaded.net/file/hg1oxvuq/Am4n3cer.Ed1mbrg0.BD.Micro.1080p-flash.part6.rar

Mixto - Uptobox, 1Fichier (Uploaded 100 MB Aproximadamente)




Código:
http://uptobox.com/5ct0yenr6253
http://uptobox.com/n2b947se1hat
http://uptobox.com/adgvnzh6x7zr
http://uptobox.com/7yzzgj8zpcvz
http://uptobox.com/cjokn59s4qju
http://uploaded.net/file/hg1oxvuq/Am4n3cer.Ed1mbrg0.BD.Micro.1080p-flash.part6.rar




Código:
http://7xgwuv0f8g.1fichier.com/
http://c0ex7kjbei.1fichier.com/
http://c4xarah5bm.1fichier.com/
http://xmt5r34ipe.1fichier.com/
http://mh4nifsvci.1fichier.com/
http://uploaded.net/file/hg1oxvuq/Am4n3cer.Ed1mbrg0.BD.Micro.1080p-flash.part6.rar