Enrico Oliveri, secretario del principal partido de la oposición, pierde apoyos y entra en crisis. Tras ser duramente criticado en un mitin, abandona sus compromisos y responsabilidades y se refugia en Francia, en casa de una amiga. Su ayudante, intenta salir del apuro sustituyéndolo por su hermano gemelo, un enfermo bipolar recién salido del psiquiátrico. El experimento resulta ser un acierto porque el electorado recupera la confianza en (el falso) Enrico.




Título original:Viva la libertà
Año:2013
Duración:94min
Director:Roberto Andò
Guión:Roberto Andò, Angelo Pasquini
Música:
Fotografía:Maurizio Calvesi
Reparto: Toni Servillo, Valerio Mastandrea, Valeria Bruni Tedeschi, Michela Cescon, Anna Bonaiuto, Eric Nguyen, Judith Davis, Andrea Renzi
Productora:BiBi Film / Rai Cinema / MiBAC
Género: Drama | Política


MEDIA INFO

Código:
Format                                   : Matroska
Format version                           : Version 2
File size                                : 4.13 GiB
Duration                                 : 1h 35mn
Overall bit rate                         : 6 168 Kbps
Encoded date                             : UTC 2014-10-09 01:18:53
Writing application                      : mkvmerge v5.0.1 ('Es ist Sommer') built on Oct  9 2011 11:55:43
Writing library                          : libebml v1.2.2 + libmatroska v1.3.0
Attachment                               : Yes


Video
ID                                       : 1
Format                                   : AVC
Format/Info                              : Advanced Video Codec
Format profile                           : High@L4.1
Format settings, CABAC                   : Yes
Format settings, ReFrames                : 5 frames
Codec ID                                 : V_MPEG4/ISO/AVC
Duration                                 : 1h 35mn
Bit rate                                 : 5 149 Kbps
Width                                    : 1 920 pixels
Height                                   : 816 pixels
Display aspect ratio                     : 2.35:1
Frame rate mode                          : Constant
Frame rate                               : 24.000 fps
Color space                              : YUV
Chroma subsampling                       : 4:2:0
Bit depth                                : 8 bits
Scan type                                : Progressive
Bits/(Pixel*Frame)                       : 0.137
Stream size                              : 3.45 GiB (83%)
Writing library                          : x264 core 142 r2431 ac76440
Encoding settings                        : cabac=1 / ref=5 / deblock=1:-3:-3 / analyse=0x3:0x113 / me=umh / subme=7 / psy=1 / psy_rd=1.00:0.15 / mixed_ref=1 / me_range=24 / chroma_me=1 / trellis=2 / 8x8dct=1 / cqm=0 / deadzone=21,11 / fast_pskip=1 / chroma_qp_offset=-3 / threads=24 / lookahead_threads=4 / sliced_threads=0 / nr=0 / decimate=1 / interlaced=0 / bluray_compat=0 / constrained_intra=0 / bframes=3 / b_pyramid=2 / b_adapt=2 / b_bias=0 / direct=3 / weightb=1 / open_gop=0 / weightp=2 / keyint=240 / keyint_min=24 / scenecut=40 / intra_refresh=0 / rc_lookahead=40 / rc=crf / mbtree=1 / crf=17.5 / qcomp=0.60 / qpmin=10 / qpmax=51 / qpstep=4 / vbv_maxrate=50000 / vbv_bufsize=50000 / crf_max=0.0 / nal_hrd=none / filler=0 / ip_ratio=1.40 / aq=1:1.00
Language                                 : English
Default                                  : Yes
Forced                                   : No


Audio #1
ID                                       : 2
Format                                   : AC-3
Format/Info                              : Audio Coding 3
Mode extension                           : CM (complete main)
Format settings, Endianness              : Big
Codec ID                                 : A_AC3
Duration                                 : 1h 35mn
Bit rate mode                            : Constant
Bit rate                                 : 448 Kbps
Channel count                            : 6 channels
Channel positions                        : Front: L C R, Side: L R, LFE
Sampling rate                            : 48.0 KHz
Bit depth                                : 16 bits
Compression mode                         : Lossy
Stream size                              : 307 MiB (7%)
Language                                 : Spanish
Default                                  : Yes
Forced                                   : Yes


Audio #2
ID                                       : 3
Format                                   : AC-3
Format/Info                              : Audio Coding 3
Mode extension                           : CM (complete main)
Format settings, Endianness              : Big
Codec ID                                 : A_AC3
Duration                                 : 1h 35mn
Bit rate mode                            : Constant
Bit rate                                 : 448 Kbps
Channel count                            : 6 channels
Channel positions                        : Front: L C R, Side: L R, LFE
Sampling rate                            : 48.0 KHz
Bit depth                                : 16 bits
Compression mode                         : Lossy
Stream size                              : 307 MiB (7%)
Language                                 : Italian
Default                                  : No
Forced                                   : No


Text #1
ID                                       : 4
Format                                   : UTF-8
Codec ID                                 : S_TEXT/UTF8
Codec ID/Info                            : UTF-8 Plain Text
Language                                 : Italian
Default                                  : No
Forced                                   : No


Text #2
ID                                       : 5
Format                                   : UTF-8
Codec ID                                 : S_TEXT/UTF8
Codec ID/Info                            : UTF-8 Plain Text
Language                                 : Spanish
Default                                  : No











1 Link



Código:
http://uploaded.net/file/1350l7c2/Viv4.L1b3rt4d.M1080p.flash.rar

Links Por Partes



Código:
http://uploaded.net/file/n6ycejdp/Viv4.L1b3rt4d.M1080p-flash.part1.rar
http://uploaded.net/file/pcq6i1cd/Viv4.L1b3rt4d.M1080p-flash.part2.rar
http://uploaded.net/file/r6nbzfi6/Viv4.L1b3rt4d.M1080p-flash.part3.rar
http://uploaded.net/file/ms0sdcoe/Viv4.L1b3rt4d.M1080p-flash.part4.rar
http://uploaded.net/file/bevr1aus/Viv4.L1b3rt4d.M1080p-flash.part5.rar
http://uploaded.net/file/qguak7n7/Viv4.L1b3rt4d.M1080p-flash.part6.rar

Mixto - Uptobox, 1Fichier (Uploaded 100 MB Aproximadamente)




Código:
http://uptobox.com/cy3fkypl9562
http://uptobox.com/rk500pz9ubfq
http://uptobox.com/mpya15ikovmm
http://uptobox.com/kvo6025eqowz
http://uptobox.com/pnl0ueels1fb
http://uploaded.net/file/qguak7n7/Viv4.L1b3rt4d.M1080p-flash.part6.rar




Código:
http://sc47w7g8lj.1fichier.com/
http://n2aag4bj82.1fichier.com/
http://xq6zvtjr72.1fichier.com/
http://35ch4jok6a.1fichier.com/
http://qqd06oh0ns.1fichier.com/
http://uploaded.net/file/qguak7n7/Viv4.L1b3rt4d.M1080p-flash.part6.rar