Enrico Oliveri, un político en crisis y secretario del principal partido de la oposición que está perdiendo apoyos, abandona sus compromisos y responsabilidades tras ser criticado duramente en un mítin y se esconderá en Francia, en casa de una amiga. Su ayudante, para salir del apuro ya cada vez con menos crédito intentando justificar su ausencia, decide entonces sustituirlo por su hermano gemelo, un filósofo bipolar recién salido del psiquiátrico. Una auténtica locura que se tornará acierto cuando el electorado vuelva a ver en Enrico (ahora Giovanni) una opción real. Todo ello se deberá a un lenguaje distinto e irónico, que pondrá nuevamente al ficticio Enrico en la cresta de la ola.




Título: Viva la libertà
Título original: Viva la libertà
País: Italia
Estreno en USA:
Estreno en España: 21/05/2014
Lanzamiento en DVD (alquiler): 08/10/2014
Productora: BiBi Film, Rai Cinema, MiBAC
Director: Roberto Andò
Guión: Roberto Andò, Angelo Pasquini
Reparto: Toni Servillo, Valerio Mastandrea, Valeria Bruni Tedeschi, Michela Cescon, Gianrico Tedeschi, Eric Nguyen, Andrea Renzi, Judith Davis, Brice Fournier, Paolo Bessegato, Giulia Andò, Alessandro Averone, Vincenzo Pirrotta, Giovanni Lombardo Radice, Antonio Gerardi

MEDIA INFO

Código:
Format                                   : Matroska
Format version                           : Version 2
File size                                : 6.53 GiB
Duration                                 : 1h 35mn
Overall bit rate                         : 9 768 Kbps
Encoded date                             : UTC 2014-10-09 01:12:24
Writing application                      : mkvmerge v5.0.1 ('Es ist Sommer') built on Oct  9 2011 11:55:43
Writing library                          : libebml v1.2.2 + libmatroska v1.3.0
Attachements                             : F1_T2_Video - .rar

Video
ID                                       : 1
Format                                   : AVC
Format/Info                              : Advanced Video Codec
Format profile                           : High@L4.1
Format settings, CABAC                   : Yes
Format settings, ReFrames                : 5 frames
Codec ID                                 : V_MPEG4/ISO/AVC
Duration                                 : 1h 35mn
Bit rate                                 : 7 813 Kbps
Width                                    : 1 920 pixels
Height                                   : 816 pixels
Display aspect ratio                     : 2.35:1
Frame rate mode                          : Constant
Frame rate                               : 24.000 fps
Color space                              : YUV
Chroma subsampling                       : 4:2:0
Bit depth                                : 8 bits
Scan type                                : Progressive
Bits/(Pixel*Frame)                       : 0.208
Stream size                              : 5.10 GiB (78%)
Title                                    : SMDegrain(tr=3,thSAD=264,contrasharp=100)
Writing library                          : x264 core 133 r2334 a3ac64b
Encoding settings                        : cabac=1 / ref=5 / deblock=1:-2:-2 / analyse=0x3:0x133 / me=hex / subme=7 / psy=1 / psy_rd=1.00:0.00 / mixed_ref=1 / me_range=16 / chroma_me=1 / trellis=1 / 8x8dct=1 / cqm=0 / deadzone=21,11 / fast_pskip=1 / chroma_qp_offset=-2 / threads=18 / lookahead_threads=3 / sliced_threads=0 / nr=0 / decimate=1 / interlaced=0 / bluray_compat=0 / constrained_intra=0 / bframes=3 / b_pyramid=2 / b_adapt=1 / b_bias=0 / direct=1 / weightb=1 / open_gop=0 / weightp=2 / keyint=240 / keyint_min=24 / scenecut=40 / intra_refresh=0 / rc_lookahead=50 / rc=2pass / mbtree=1 / bitrate=7813 / ratetol=1.0 / qcomp=0.60 / qpmin=0 / qpmax=69 / qpstep=4 / cplxblur=20.0 / qblur=0.5 / vbv_maxrate=40000 / vbv_bufsize=30000 / nal_hrd=none / ip_ratio=1.40 / aq=1:1.00
Language                                 : English
Default                                  : Yes
Forced                                   : No

Audio #1
ID                                       : 2
Format                                   : AC-3
Format/Info                              : Audio Coding 3
Mode extension                           : CM (complete main)
Format settings, Endianness              : Big
Codec ID                                 : A_AC3
Duration                                 : 1h 35mn
Bit rate mode                            : Constant
Bit rate                                 : 448 Kbps
Channel(s)                               : 6 channels
Channel positions                        : Front: L C R, Side: L R, LFE
Sampling rate                            : 48.0 KHz
Bit depth                                : 16 bits
Compression mode                         : Lossy
Stream size                              : 307 MiB (5%)
Language                                 : Spanish
Default                                  : Yes
Forced                                   : Yes

Audio #2
ID                                       : 3
Format                                   : DTS
Format/Info                              : Digital Theater Systems
Mode                                     : 16
Format settings, Endianness              : Big
Codec ID                                 : A_DTS
Duration                                 : 1h 35mn
Bit rate mode                            : Constant
Bit rate                                 : 1 509 Kbps
Channel(s)                               : 6 channels
Channel positions                        : Front: L C R, Side: L R, LFE
Sampling rate                            : 48.0 KHz
Bit depth                                : 24 bits
Compression mode                         : Lossy
Stream size                              : 1.01 GiB (15%)
Language                                 : Italian
Default                                  : No
Forced                                   : No

Text #1
ID                                       : 4
Format                                   : UTF-8
Codec ID                                 : S_TEXT/UTF8
Codec ID/Info                            : UTF-8 Plain Text
Language                                 : Italian
Default                                  : No
Forced                                   : No

Text #2
ID                                       : 5
Format                                   : UTF-8
Codec ID                                 : S_TEXT/UTF8
Codec ID/Info                            : UTF-8 Plain Text
Language                                 : Spanish
Default                                  : No
Forced                                   : No











Links Por Partes



Código:
http://uploaded.net/file/022s2vwh/Viv4.LiberT4.BDR1080p.flash.part1.rar
http://uploaded.net/file/2rwff10k/Viv4.LiberT4.BDR1080p.flash.part2.rar
http://uploaded.net/file/bw8nprv8/Viv4.LiberT4.BDR1080p.flash.part3.rar
http://uploaded.net/file/mwyls78l/Viv4.LiberT4.BDR1080p.flash.part4.rar
http://uploaded.net/file/rcomvynw/Viv4.LiberT4.BDR1080p.flash.part5.rar
http://uploaded.net/file/7xxwihbj/Viv4.LiberT4.BDR1080p.flash.part6.rar
http://uploaded.net/file/clwi4foz/Viv4.LiberT4.BDR1080p.flash.part7.rar
http://uploaded.net/file/c6otvf9l/Viv4.LiberT4.BDR1080p.flash.part8.rar

Mixto - Uptobox, 1Fichier (Uploaded 100 MB Aproximadamente)




Código:
http://uptobox.com/14pot94mzcnw
http://uptobox.com/skg45arm7vwa
http://uptobox.com/bq5796zirx1a
http://uptobox.com/586g4po8c21n
http://uptobox.com/5pghi1i0bqc6
http://uptobox.com/p2qf2xqr3d4n
http://uptobox.com/29nxqg3waxqt
http://uploaded.net/file/c6otvf9l/Viv4.LiberT4.BDR1080p.flash.part8.rar




Código:
http://sc6savpk74.1fichier.com/
http://wyl1biddgr.1fichier.com/
http://f3zvemvhup.1fichier.com/
http://nro4gaukm6.1fichier.com/
http://5v6k58v6jl.1fichier.com/
http://4rjz341o0z.1fichier.com/
http://m7sd86t4on.1fichier.com/
http://uploaded.net/file/c6otvf9l/Viv4.LiberT4.BDR1080p.flash.part8.rar