Frank es una original comedia sobre un joven aspirante a músico que se siente perdido al unirse a un grupo pop vanguardista liderado por el misterioso y enigmático Frank: un genio de la música que se esconde bajo una enorme cabeza postiza.




Título: Frank
Título original: Frank
País: Irlanda
Estreno en USA: 15/08/2014
Estreno en España: 26/09/2014
Estreno en Reino Unido: 09/05/2014
Productora: Film4, Irish Film Board, Runaway Fridge, Element Pictures
Director: Lenny Abrahamson
Guión: Jon Ronson, Peter Straughan
Reparto: Domhnall Gleeson, Michael Fassbender, Moira Brooker, Paul Butterworth, Phil Kingston, Billie Traynor, Shane O'Brien, Scoot McNairy, Maggie Gyllenhaal, François Civil, Carla Azar, Chris McHallem, Michael James Ford, Mark Huberman, Rosalind Adler
Género: Comedia. Drama | Música

Calidad de Video: BDRip HD 1080p 1920x812 By XKlusiveDD®
Calidad de Audio: Castellano AC3 2.0 384kbps e Ingles DTS 5.1 768 Kbps
Subtitulos: Español e Ingles
Tamaño: 8.04 GB

MEDIA INFO

Código:
Format                                   : Matroska
Format version                           : Version 2
File size                                : 8.04 GiB
Duration                                 : 1h 36mn
Overall bit rate                         : 11.9 Mbps
Encoded date                             : UTC 2014-09-29 09:51:44
Writing application                      : mkvmerge v5.3.0 ('I could have danced') built on Feb  9 2012 10:38:07
Writing library                          : libebml v1.2.3 + libmatroska v1.3.0

Video
ID                                       : 1
Format                                   : AVC
Format/Info                              : Advanced Video Codec
Format profile                           : High@L4.1
Format settings, CABAC                   : Yes
Format settings, ReFrames                : 4 frames
Codec ID                                 : V_MPEG4/ISO/AVC
Duration                                 : 1h 36mn
Bit rate                                 : 10.5 Mbps
Nominal bit rate                         : 11.5 Mbps
Width                                    : 1 920 pixels
Height                                   : 812 pixels
Display aspect ratio                     : 2.35:1
Frame rate mode                          : Constant
Frame rate                               : 23.976 fps
Color space                              : YUV
Chroma subsampling                       : 4:2:0
Bit depth                                : 8 bits
Scan type                                : Progressive
Bits/(Pixel*Frame)                       : 0.281
Stream size                              : 7.10 GiB (88%)
Writing library                          : x264 core 142 r2479 dd79a61
Encoding settings                        : cabac=1 / ref=4 / deblock=1:0:0 / analyse=0x3:0x113 / me=umh / subme=8 / psy=1 / psy_rd=1.00:0.00 / mixed_ref=1 / me_range=16 / chroma_me=1 / trellis=1 / 8x8dct=1 / cqm=0 / deadzone=21,11 / fast_pskip=1 / chroma_qp_offset=-2 / threads=12 / lookahead_threads=2 / sliced_threads=0 / nr=0 / decimate=1 / interlaced=0 / bluray_compat=0 / constrained_intra=0 / bframes=3 / b_pyramid=2 / b_adapt=2 / b_bias=0 / direct=3 / weightb=1 / open_gop=0 / weightp=2 / keyint=240 / keyint_min=24 / scenecut=40 / intra_refresh=0 / rc_lookahead=50 / rc=abr / mbtree=1 / bitrate=11500 / ratetol=1.0 / qcomp=0.60 / qpmin=0 / qpmax=69 / qpstep=4 / vbv_maxrate=62500 / vbv_bufsize=78125 / nal_hrd=none / filler=0 / ip_ratio=1.40 / aq=1:1.00
Language                                 : Spanish
Default                                  : Yes
Forced                                   : No
Color primaries                          : BT.709
Transfer characteristics                 : BT.709
Matrix coefficients                      : BT.709

Audio #1
ID                                       : 2
Format                                   : AC-3
Format/Info                              : Audio Coding 3
Mode extension                           : CM (complete main)
Format settings, Endianness              : Big
Codec ID                                 : A_AC3
Duration                                 : 1h 36mn
Bit rate mode                            : Constant
Bit rate                                 : 384 Kbps
Channel(s)                               : 2 channels
Channel positions                        : Front: L R
Sampling rate                            : 48.0 KHz
Bit depth                                : 16 bits
Compression mode                         : Lossy
Delay relative to video                  : -83ms
Stream size                              : 266 MiB (3%)
Language                                 : Spanish
Default                                  : Yes
Forced                                   : No

Audio #2
ID                                       : 3
Format                                   : DTS
Format/Info                              : Digital Theater Systems
Mode                                     : 16
Format settings, Endianness              : Big
Codec ID                                 : A_DTS
Duration                                 : 1h 36mn
Bit rate mode                            : Constant
Bit rate                                 : 768 Kbps
Channel(s)                               : 6 channels
Channel positions                        : Front: L C R, Side: L R, LFE
Sampling rate                            : 48.0 KHz
Bit depth                                : 24 bits
Compression mode                         : Lossy
Delay relative to video                  : -83ms
Stream size                              : 532 MiB (6%)
Language                                 : English
Default                                  : No
Forced                                   : No

Text #1
ID                                       : 4
Format                                   : UTF-8
Codec ID                                 : S_TEXT/UTF8
Codec ID/Info                            : UTF-8 Plain Text
Language                                 : Spanish
Default                                  : No
Forced                                   : No

Text #2
ID                                       : 5
Format                                   : UTF-8
Codec ID                                 : S_TEXT/UTF8
Codec ID/Info                            : UTF-8 Plain Text
Language                                 : English
Default                                  : No
Forced                                   : No











Links Por Partes



Código:
http://uploaded.net/file/jdobh1t0/Fr4nk.BDR1080p.flash.part01.rar
http://uploaded.net/file/nlv6dy7q/Fr4nk.BDR1080p.flash.part02.rar
http://uploaded.net/file/ijdhvd4x/Fr4nk.BDR1080p.flash.part03.rar
http://uploaded.net/file/386lvuj0/Fr4nk.BDR1080p.flash.part04.rar
http://uploaded.net/file/ucgjmi3w/Fr4nk.BDR1080p.flash.part05.rar
http://uploaded.net/file/ci85u45b/Fr4nk.BDR1080p.flash.part06.rar
http://uploaded.net/file/9o7gft28/Fr4nk.BDR1080p.flash.part07.rar
http://uploaded.net/file/csqnn38u/Fr4nk.BDR1080p.flash.part08.rar
http://uploaded.net/file/dmj0ctpg/Fr4nk.BDR1080p.flash.part09.rar
http://uploaded.net/file/w4xngdsb/Fr4nk.BDR1080p.flash.part10.rar

Mixto - Firedrive (Uploaded 100 MB Aproximadamente)




Código:
http://www.firedrive.com/file/269D19D13FE7A629
http://www.firedrive.com/file/AB288C022B7B392E
http://www.firedrive.com/file/AF749B4BF534B173
http://www.firedrive.com/file/78988D321497973F
http://www.firedrive.com/file/4B34A519CFCD4261
http://www.firedrive.com/file/6E7D59478E503322
http://www.firedrive.com/file/3382D5188BE635CB
http://www.firedrive.com/file/B84384BC617C2381
http://www.firedrive.com/file/522C62F4F33D7EA8
http://uploaded.net/file/w4xngdsb/Fr4nk.BDR1080p.flash.part10.rar