Resultados 1 al 2 de 2

Tema: La mujer invisible (2013) [BDRip m720p][Castellano AC3 5.1/Ingles AC3 5.1]

  1. #1
    Ladrón de bytes Avatar de mauricio2050
    Pais
    Afganistan
    Bandera
    Ingreso
    May 2013
    Género
    Agradecer
    0
    Agrad. 12 veces en 12 posteos

    Video La mujer invisible (2013) [BDRip m720p][Castellano AC3 5.1/Ingles AC3 5.1]





    En el apogeo de su carrera, el escritor Charles Dickens, casado y con 46 años, conoce a una joven de 18 que se convierte en su amante secreta hasta su muerte. Adaptación de la novela de Claire Tomalin.



    Título original The Invisible Woman
    Año 2013
    Duración 111 min.
    País Reino Unido
    Director Ralph Fiennes
    Guión Abi Morgan (Novela: Claire Tomalin)
    Música Ilan Eshkeri
    Fotografía Rob Hardy
    Reparto Ralph Fiennes, Felicity Jones, Michelle Fairley, Kristin Scott Thomas, Tom Hollander, Perdita Weeks, Tom Burke
    Productora BBC Films / Headline Pictures / Magnolia Mae Films
    Género Romance. Drama | Drama romántico. Biográfico. Literatura. Siglo XIX

    CALIDAD DE VIDEO: BDRip m720p
    CALIDAD DE AUDIO: Castellano AC3 5.1 / Ingles AC3 5.1
    Subs: Forzados Español. Completos Español e Ingles.
    TAMAÑO: 2.87 GB

    Mediainfo

    Código:
    General
    
    Format                                   : Matroska
    Format version                           : Version 2
    File size                                : 2.87 GiB
    Duration                                 : 1h 51mn
    Overall bit rate                         : 3 681 Kbps
    Encoded date                             : UTC 2014-09-02 22:41:27
    Writing application                      : mkvmerge v5.7.0 ('The Whirlwind') built on Jul  8 2012 20:08:51
    Writing library                          : libebml v1.2.3 + libmatroska v1.3.0
    
    Video
    ID                                       : 1
    Format                                   : AVC
    Format/Info                              : Advanced Video Codec
    Format profile                           : High@L4.1
    Format settings, CABAC                   : Yes
    Format settings, ReFrames                : 4 frames
    Codec ID                                 : V_MPEG4/ISO/AVC
    Duration                                 : 1h 51mn
    Bit rate                                 : 2 400 Kbps
    Width                                    : 1 280 pixels
    Height                                   : 534 pixels
    Display aspect ratio                     : 2.40:1
    Frame rate mode                          : Constant
    Frame rate                               : 23.976 fps
    Color space                              : YUV
    Chroma subsampling                       : 4:2:0
    Bit depth                                : 8 bits
    Scan type                                : Progressive
    Bits/(Pixel*Frame)                       : 0.146
    Stream size                              : 1.81 GiB (63%)
    Writing library                          : x264 core 130 r2273 b3065e6
    Encoding settings                        : cabac=1 / ref=3 / deblock=1:-1:-1 / analyse=0x3:0x113 / me=hex / subme=7 / psy=1 / psy_rd=1.00:0.15 / mixed_ref=1 / me_range=16 / chroma_me=1 / trellis=1 / 8x8dct=1 / cqm=0 / deadzone=21,11 / fast_pskip=1 / chroma_qp_offset=-3 / threads=12 / lookahead_threads=2 / sliced_threads=0 / nr=0 / decimate=1 / interlaced=0 / bluray_compat=0 / constrained_intra=0 / bframes=3 / b_pyramid=2 / b_adapt=1 / b_bias=0 / direct=1 / weightb=1 / open_gop=0 / weightp=2 / keyint=240 / keyint_min=24 / scenecut=40 / intra_refresh=0 / rc_lookahead=40 / rc=2pass / mbtree=1 / bitrate=2400 / ratetol=1.0 / qcomp=0.60 / qpmin=0 / qpmax=69 / qpstep=4 / cplxblur=20.0 / qblur=0.5 / vbv_maxrate=62500 / vbv_bufsize=78125 / nal_hrd=none / ip_ratio=1.40 / aq=1:1.00
    Language                                 : English
    Default                                  : Yes
    Forced                                   : No
    Color primaries                          : BT.709
    Transfer characteristics                 : BT.709
    Matrix coefficients                      : BT.709
    
    Audio #1
    ID                                       : 2
    Format                                   : AC-3
    Format/Info                              : Audio Coding 3
    Mode extension                           : CM (complete main)
    Format settings, Endianness              : Big
    Codec ID                                 : A_AC3
    Duration                                 : 1h 51mn
    Bit rate mode                            : Constant
    Bit rate                                 : 640 Kbps
    Channel(s)                               : 6 channels
    Channel positions                        : Front: L C R, Side: L R, LFE
    Sampling rate                            : 48.0 KHz
    Bit depth                                : 16 bits
    Compression mode                         : Lossy
    Stream size                              : 510 MiB (17%)
    Default                                  : Yes
    Forced                                   : No
    
    Audio #2
    ID                                       : 3
    Format                                   : AC-3
    Format/Info                              : Audio Coding 3
    Mode extension                           : CM (complete main)
    Format settings, Endianness              : Big
    Codec ID                                 : A_AC3
    Duration                                 : 1h 51mn
    Bit rate mode                            : Constant
    Bit rate                                 : 640 Kbps
    Channel(s)                               : 6 channels
    Channel positions                        : Front: L C R, Side: L R, LFE
    Sampling rate                            : 48.0 KHz
    Bit depth                                : 16 bits
    Compression mode                         : Lossy
    Stream size                              : 510 MiB (17%)
    Default                                  : No
    Forced                                   : No
    
    Text #1
    ID                                       : 4
    Format                                   : UTF-8
    Codec ID                                 : S_TEXT/UTF8
    Codec ID/Info                            : UTF-8 Plain Text
    Language                                 : Spanish
    Default                                  : Yes
    Forced                                   : Yes
    
    Text #2
    ID                                       : 5
    Format                                   : UTF-8
    Codec ID                                 : S_TEXT/UTF8
    Codec ID/Info                            : UTF-8 Plain Text
    Language                                 : Spanish
    Default                                  : No
    Forced                                   : No
    
    Text #3
    ID                                       : 6
    Format                                   : UTF-8
    Codec ID                                 : S_TEXT/UTF8
    Codec ID/Info                            : UTF-8 Plain Text
    Language                                 : English
    Default                                  : No
    Forced                                   : No






    1 Link y links Intercambiables




    http://gpaste.us/10e41194


  2. #2
    Supermoderador Avatar de vladi99
    Pais
    Usa
    Bandera
    Ingreso
    Dec 2008
    Ubicación
    usa california
    Género
    Agradecer
    1,119
    Agrad. 1,401 veces en 1,000 posteos
    aun no la veo,rumbo a la descarga directa de un salo link ,gracias a mauricio por sus aportes y mejor aun de un salo link.

    EN BUSCA DE LA VERDAD


  3. El siguiente usuario agradeció a vladi99 por este aporte:

    Luisfecab (21 09 2014)

Etiquetas para este tema

Permisos de publicación

  • No puedes crear nuevos temas
  • No puedes responder temas
  • No puedes subir archivos adjuntos
  • No puedes editar tus mensajes
  •