En el apogeo de su carrera, el escritor Charles Dickens, casado y con 46 años, conoce a una joven de 18 que se convierte en su amante secreta hasta su muerte. Adaptación de la novela de Claire Tomalin.



Título original The Invisible Woman
Año 2013
Duración 111 min.
País Reino Unido
Director Ralph Fiennes
Guión Abi Morgan (Novela: Claire Tomalin)
Música Ilan Eshkeri
Fotografía Rob Hardy
Reparto Ralph Fiennes, Felicity Jones, Michelle Fairley, Kristin Scott Thomas, Tom Hollander, Perdita Weeks, Tom Burke
Productora BBC Films / Headline Pictures / Magnolia Mae Films
Género Romance. Drama | Drama romántico. Biográfico. Literatura. Siglo XIX

CALIDAD DE VIDEO: BDRip m1080p
CALIDAD DE AUDIO: Castellano AC3 5.1 by Santorun1 / Ingles AC3 5.1
Subs: Forzados Español. Completos Español e Ingles.
TAMAÑO: 3.8 GB.

Mediainfo

Código:
General

Format                                   : Matroska
Format version                           : Version 2
File size                                : 3.74 GiB
Duration                                 : 1h 51mn
Overall bit rate mode                    : Variable
Overall bit rate                         : 4 799 Kbps
Encoded date                             : UTC 2014-09-02 22:46:50
Writing application                      : mkvmerge v5.7.0 ('The Whirlwind') built on Jul  8 2012 20:08:51
Writing library                          : libebml v1.2.3 + libmatroska v1.3.0

Video
ID                                       : 1
Format                                   : AVC
Format/Info                              : Advanced Video Codec
Format profile                           : High@L4.0
Format settings, CABAC                   : Yes
Format settings, ReFrames                : 3 frames
Codec ID                                 : V_MPEG4/ISO/AVC
Duration                                 : 1h 51mn
Bit rate mode                            : Variable
Bit rate                                 : 3 424 Kbps
Maximum bit rate                         : 7 000 Kbps
Width                                    : 1 920 pixels
Height                                   : 800 pixels
Display aspect ratio                     : 2.40:1
Frame rate mode                          : Constant
Frame rate                               : 23.976 fps
Color space                              : YUV
Chroma subsampling                       : 4:2:0
Bit depth                                : 8 bits
Scan type                                : Progressive
Bits/(Pixel*Frame)                       : 0.093
Stream size                              : 2.67 GiB (71%)
Default                                  : Yes
Forced                                   : No
Color primaries                          : BT.709
Transfer characteristics                 : BT.709
Matrix coefficients                      : BT.709

Audio #1
ID                                       : 2
Format                                   : AC-3
Format/Info                              : Audio Coding 3
Mode extension                           : CM (complete main)
Format settings, Endianness              : Big
Codec ID                                 : A_AC3
Duration                                 : 1h 51mn
Bit rate mode                            : Constant
Bit rate                                 : 640 Kbps
Channel(s)                               : 6 channels
Channel positions                        : Front: L C R, Side: L R, LFE
Sampling rate                            : 48.0 KHz
Bit depth                                : 16 bits
Compression mode                         : Lossy
Stream size                              : 510 MiB (13%)
Language                                 : Spanish
Default                                  : Yes
Forced                                   : No

Audio #2
ID                                       : 3
Format                                   : AC-3
Format/Info                              : Audio Coding 3
Mode extension                           : CM (complete main)
Format settings, Endianness              : Big
Codec ID                                 : A_AC3
Duration                                 : 1h 51mn
Bit rate mode                            : Constant
Bit rate                                 : 640 Kbps
Channel(s)                               : 6 channels
Channel positions                        : Front: L C R, Side: L R, LFE
Sampling rate                            : 48.0 KHz
Bit depth                                : 16 bits
Compression mode                         : Lossy
Stream size                              : 510 MiB (13%)
Language                                 : English
Default                                  : No
Forced                                   : No

Text #1
ID                                       : 4
Format                                   : UTF-8
Codec ID                                 : S_TEXT/UTF8
Codec ID/Info                            : UTF-8 Plain Text
Language                                 : Spanish
Default                                  : Yes
Forced                                   : Yes

Text #2
ID                                       : 5
Format                                   : UTF-8
Codec ID                                 : S_TEXT/UTF8
Codec ID/Info                            : UTF-8 Plain Text
Language                                 : Spanish
Default                                  : No
Forced                                   : No

Text #3
ID                                       : 6
Format                                   : UTF-8
Codec ID                                 : S_TEXT/UTF8
Codec ID/Info                            : UTF-8 Plain Text
Language                                 : English
Default                                  : No
Forced                                   : No






1 Link y links Intercambiables




http://gpaste.us/117cc7ab