Buscando un futuro mejor, Óscar Ramírez y su familia dejan los campos de arroz del norte de Filipinas para mudarse a la asfixiante ciudad de Manila. Óscar se considera afortunado cuando le ofrecen un empleo estable en una compañía de camiones blindados, pero se trata de un trabajo peligroso con un alto índice de mortalidad.



Título original Metro Manila
Año 2013
Duración 114 min.
País [Reino Unido] Reino Unido
Director Sean Ellis
Guión Sean Ellis, Frank E. Flowers
Música Robin Foster
Fotografía Sean Ellis
Reparto
Jake Macapagal, John Arcilla, Althea Vega, Miles Canapi, Ana Abad-Santos, Moises Magisa, JM Rodriguez, Erin Panlilio
Productora Coproducción Reino Unido-Filipinas; Chocolate Frog Films
Género Drama. Thriller | Crimen

Formato: Matroska MicroHD 1080p
Tamaño: 4.79 GiB
Resolucion: 1920 x 1036
Audio 1: Castellano AC3 448 kbps 6 channels
Audio 2: Tagalog AC3 640 kbps 6 channels
Subtitulos: Español

Mediainfo

Código:
Format                                   : Matroska
Format version                           : Version 4 / Version 2
File size                                : 4.79 GiB
Duration                                 : 1h 54mn
Overall bit rate                         : 5 977 Kbps
Movie name                               : Metro.Manila.2013.1080p.BluRay.DTS.x264-PublicHD (1)
Encoded date                             : UTC 2014-08-08 12:39:27
Writing application                      : mkvmerge v7.1.0 ('Good Love') 64bit built on Jul 27 2014 13:06:55
Writing library                          : libebml v1.3.0 + libmatroska v1.4.1
DURATION                                 : 01:49:14.256000000
NUMBER_OF_FRAMES                         : 887
NUMBER_OF_BYTES                          : 26758
_STATISTICS_WRITING_APP                  : mkvmerge v7.1.0 ('Good Love') 64bit built on Jul 27 2014 13:06:55
_STATISTICS_WRITING_DATE_UTC             : 2014-08-08 12:39:27
_STATISTICS_TAGS                         : BPS DURATION NUMBER_OF_FRAMES NUMBER_OF_BYTES

Video
ID                                       : 1
Format                                   : AVC
Format/Info                              : Advanced Video Codec
Format profile                           : High@L4.1
Format settings, CABAC                   : Yes
Format settings, ReFrames                : 2 frames
Codec ID                                 : V_MPEG4/ISO/AVC
Duration                                 : 1h 54mn
Bit rate                                 : 4 770 Kbps
Width                                    : 1 920 pixels
Height                                   : 1 036 pixels
Display aspect ratio                     : 1.853
Frame rate                               : 24.000 fps
Color space                              : YUV
Chroma subsampling                       : 4:2:0
Bit depth                                : 8 bits
Scan type                                : Progressive
Bits/(Pixel*Frame)                       : 0.100
Stream size                              : 3.82 GiB (80%)
Writing library                          : x264 core
Language                                 : Spanish
Color primaries                          : BT.709-5, BT.1361, IEC 61966-2-4, SMPTE RP177
Transfer characteristics                 : BT.709-5, BT.1361
Matrix coefficients                      : BT.709-5, BT.1361, IEC 61966-2-4 709, SMPTE RP177

Audio #1
ID                                       : 2
Format                                   : AC-3
Format/Info                              : Audio Coding 3
Mode extension                           : CM (complete main)
Codec ID                                 : A_AC3
Duration                                 : 1h 54mn
Bit rate mode                            : Constant
Bit rate                                 : 448 Kbps
Channel(s)                               : 6 channels
Channel positions                        : Front: L C R, Side: L R, LFE
Sampling rate                            : 48.0 KHz
Bit depth                                : 16 bits
Compression mode                         : Lossy
Stream size                              : 367 MiB (7%)
Title                                    : Castellano AC3 5.1
Language                                 : Spanish

Audio #2
ID                                       : 3
Format                                   : AC-3
Format/Info                              : Audio Coding 3
Mode extension                           : CM (complete main)
Codec ID                                 : A_AC3
Duration                                 : 1h 54mn
Bit rate mode                            : Constant
Bit rate                                 : 640 Kbps
Channel(s)                               : 6 channels
Channel positions                        : Front: L C R, Side: L R, LFE
Sampling rate                            : 48.0 KHz
Bit depth                                : 16 bits
Compression mode                         : Lossy
Stream size                              : 525 MiB (11%)
Language                                 : Tagalog

Text #1
ID                                       : 4
Format                                   : ASS
Codec ID                                 : S_TEXT/ASS
Codec ID/Info                            : Advanced Sub Station Alpha
Compression mode                         : Lossless
Title                                    : Arriba
Language                                 : Spanish

Text #2
ID                                       : 5
Format                                   : UTF-8
Codec ID                                 : S_TEXT/UTF8
Codec ID/Info                            : UTF-8 Plain Text
Title                                    : Abajo
Language                                 : Spanish






1 Link



http://letitbit.net/download/82725.8...ricio.rar.html



http://uploaded.net/file/xb5mvgnk/Me...o.Mauricio.rar



https://www.oboom.com/N0E41221/Metro...o.Mauricio.rar

Links Intercambiables



http://uploaded.net/file/qrvcq5no/Me...icio.part1.rar
http://uploaded.net/file/si1jkfj2/Me...icio.part2.rar
http://uploaded.net/file/xvvbpd3s/Me...icio.part3.rar
http://uploaded.net/file/d751o8a3/Me...icio.part4.rar
http://uploaded.net/file/d8kmnl1e/Me...icio.part5.rar
http://uploaded.net/file/o54m037u/Me...icio.part6.rar
http://uploaded.net/file/cdvn8zev/Me...icio.part7.rar



https://www.oboom.com/BNMRWS0N/Metro...icio.part1.rar
https://www.oboom.com/OZJ5BKJO/Metro...icio.part2.rar
https://www.oboom.com/5OLZE6NT/Metro...icio.part3.rar
https://www.oboom.com/FOCW4PYW/Metro...icio.part4.rar
https://www.oboom.com/BSJHZNQ4/Metro...icio.part5.rar
https://www.oboom.com/LXX5Y8HT/Metro...icio.part6.rar
https://www.oboom.com/VUMAQD6S/Metro...icio.part7.rar



http://www.uploadable.ch/file/5mVgA7...icio.part1.rar
http://www.uploadable.ch/file/c2HFAQ...icio.part2.rar
http://www.uploadable.ch/file/uGQk2A...icio.part3.rar
http://www.uploadable.ch/file/aD3Tas...icio.part4.rar
http://www.uploadable.ch/file/YEs7yN...icio.part5.rar
http://www.uploadable.ch/file/hwPUVf...icio.part6.rar
http://www.uploadable.ch/file/vdHd6P...icio.part7.rar

Mixto: Firedrive - Ul o Oboom (aproximadamente 100 Mb)




http://www.firedrive.com/file/64ED267D438385D4
http://www.firedrive.com/file/509F94377247B9F2
http://www.firedrive.com/file/9207A77236DF3CC0
http://www.firedrive.com/file/41C359D609F1CEF6
http://www.firedrive.com/file/E8BC439C9FF6F9E0
http://www.firedrive.com/file/017655FAD51BC0E5
y
http://uploaded.net/file/cdvn8zev/Me...icio.part7.rar
o
https://www.oboom.com/VUMAQD6S/Metro...icio.part7.rar