Un equipo de élite de la agencia antidroga norteamericana (DEA) aprovecha una operación contra un cártel para apoderarse de un botín de varios millones de dólares; poco después, alguien empieza a eliminar a los miembros del grupo para quedarse con todo el dinero.



Título original Sabotage
Año 2014
Duración 109 min.
País Estados Unidos Estados Unidos
Director David Ayer
Guión Skip Woods, David Ayer
Música David Sardy
Fotografía Bruce McCleery
Reparto Arnold Schwarzenegger, Sam Worthington, Olivia Williams, Terrence Howard, Joe Manganiello, Mireille Enos, Max Martini, Josh Holloway, Dawn Olivieri, Malin Akerman, Harold Perrineau, Ralf Moeller, Martin Donovan
Productora Albert S. Ruddy Productions / Crave Films / Open Road Films
Género Thriller. Acción | Drogas

Calidad De Video: WEB-DL 720 XVID 1240x696
Calidad De Audio: Ingles MP3 2.0 + Sub Español Pegados
Tamaño: 2.65 Gb

Mediainfo

Código:
General
Format                                   : AVI
Format/Info                              : Audio Video Interleave
Format profile                           : OpenDML
File size                                : 2.65 GiB
Duration                                 : 1h 49mn
Overall bit rate                         : 3 455 Kbps
Writing application                      : MEncoder SVN-r33883(20110719-gcc4.5.2)
Writing library                          : MPlayer

Video
ID                                       : 0
Format                                   : MPEG-4 Visual
Format profile                           : Advanced Simple@L5
Format settings, BVOP                    : 2
Format settings, QPel                    : No
Format settings, GMC                     : No warppoints
Format settings, Matrix                  : Default (H.263)
Codec ID                                 : XVID
Codec ID/Hint                            : XviD
Duration                                 : 1h 49mn
Bit rate                                 : 3 316 Kbps
Width                                    : 1 240 pixels
Height                                   : 696 pixels
Display aspect ratio                     : 16:9
Frame rate                               : 23.976 fps
Color space                              : YUV
Chroma subsampling                       : 4:2:0
Bit depth                                : 8 bits
Scan type                                : Progressive
Compression mode                         : Lossy
Bits/(Pixel*Frame)                       : 0.160
Stream size                              : 2.54 GiB (96%)
Writing library                          : XviD 1.2.1 (UTC 2008-12-04)

Audio
ID                                       : 1
Format                                   : MPEG Audio
Format version                           : Version 1
Format profile                           : Layer 3
Mode                                     : Joint stereo
Codec ID                                 : 55
Codec ID/Hint                            : MP3
Duration                                 : 1h 49mn
Bit rate mode                            : Constant
Bit rate                                 : 128 Kbps
Channel(s)                               : 2 channels
Sampling rate                            : 44.1 KHz
Compression mode                         : Lossy
Delay relative to video                  : 42ms
Stream size                              : 100 MiB (4%)
Alignment                                : Aligned on interleaves
Interleave, duration                     : 26 ms (0.63 video frame)
Interleave, preload duration             : 522 ms
Writing library                          : LAME3.98.4








1 Link y Links intercambiables



http://gpaste.us/214bb264