Frank lleva una vida solitaria como propietario de una tienda de maniquíes. A primera vista, parece incapaz de matar una mosca. Sin embargo, hay algo profundamente turbador en su mirada; un secreto oscuro y perverso que resurgirá tras su encuentro con Anna, una joven artista que acude a él en busca de ayuda para una exposición. Alexandre Aja y su compañero de fechorías Gregory Levasseur han sido los encargados de escribir y apadrinar este remake del clásico de culto de William Lustig, uno de los slashers más violentos de los ochenta.



Título original: Maniac
País: USA, Francia
Estreno en USA: 21/06/2013
Estreno en España: 16/05/2014
Lanzamiento en DVD (alquiler): 11/06/2014
Estreno en Francia: 02/01/2013
Productora: Aja/Levasseur Productions, Blue Underground, P2 Productions
Director: Franck Khalfoun
Guión: Alexandre Aja, Gregory Levasseur
Reparto: Elijah Wood, Nora Arnezeder, Genevieve Alexandra, Brian Ames, Liane Balaban, Jan Broberg, Aaron Colom, Joshua Delagarza, Alex Diaz, Megan Duffy, Eli Dupont, Luis Fernandez-Gil, Dan Hunter, Devra Korwin, Akbar Kurtha, Sal Landi

Calidad : BDRip-Rip m1080p
Idioma : Castellano AC3 2.0 / Ingles AC3 5.1
Subtitulos : Completos Español e Ingles.
Tamaño : 3.27 GB

Mediainfo

Código:
Format                                   : Matroska
Format version                           : Version 2
File size                                : 3.27 GiB
Duration                                 : 1h 28mn
Overall bit rate                         : 5 264 Kbps
Encoded date                             : UTC 2014-06-04 14:07:25
Writing application                      : mkvmerge v5.7.0 ('The Whirlwind') built on Jul  8 2012 20:08:51
Writing library                          : libebml v1.2.3 + libmatroska v1.3.0

Video
ID                                       : 1
Format                                   : AVC
Format/Info                              : Advanced Video Codec
Format profile                           : High@L4.1
Format settings, CABAC                   : Yes
Format settings, ReFrames                : 5 frames
Codec ID                                 : V_MPEG4/ISO/AVC
Duration                                 : 1h 28mn
Bit rate                                 : 4 500 Kbps
Width                                    : 1 920 pixels
Height                                   : 804 pixels
Display aspect ratio                     : 2.40:1
Frame rate mode                          : Constant
Frame rate                               : 24.000 fps
Color space                              : YUV
Chroma subsampling                       : 4:2:0
Bit depth                                : 8 bits
Scan type                                : Progressive
Bits/(Pixel*Frame)                       : 0.121
Stream size                              : 2.73 GiB (83%)
Writing library                          : x264 core 130 r2273 b3065e6
Encoding  settings                        : cabac=1 / ref=5 / deblock=1:-1:-1 /  analyse=0x3:0x113 / me=umh / subme=8 / psy=1 / psy_rd=1.00:0.15 /  mixed_ref=1 / me_range=16 / chroma_me=1 / trellis=1 / 8x8dct=1 / cqm=0 /  deadzone=21,11 / fast_pskip=1 / chroma_qp_offset=-3 / threads=12 /  lookahead_threads=2 / sliced_threads=0 / nr=0 / decimate=1 /  interlaced=0 / bluray_compat=0 / constrained_intra=0 / bframes=3 /  b_pyramid=2 / b_adapt=2 / b_bias=0 / direct=3 / weightb=1 / open_gop=0 /  weightp=2 / keyint=240 / keyint_min=24 / scenecut=40 / intra_refresh=0 /  rc_lookahead=50 / rc=2pass / mbtree=1 / bitrate=4500 / ratetol=1.0 /  qcomp=0.60 / qpmin=0 / qpmax=69 / qpstep=4 / cplxblur=20.0 / qblur=0.5 /  vbv_maxrate=62500 / vbv_bufsize=78125 / nal_hrd=none / ip_ratio=1.40 /  aq=1:1.00
Language                                 : English
Default                                  : Yes
Forced                                   : No
Color primaries                          : BT.709
Transfer characteristics                 : BT.709
Matrix coefficients                      : BT.709

Audio #1
ID                                       : 2
Format                                   : AC-3
Format/Info                              : Audio Coding 3
Mode extension                           : CM (complete main)
Format settings, Endianness              : Big
Codec ID                                 : A_AC3
Duration                                 : 1h 28mn
Bit rate mode                            : Constant
Bit rate                                 : 384 Kbps
Channel(s)                               : 2 channels
Channel positions                        : Front: L R
Sampling rate                            : 48.0 KHz
Bit depth                                : 16 bits
Compression mode                         : Lossy
Delay relative to video                  : 9s 0ms
Stream size                              : 244 MiB (7%)
Language                                 : Spanish
Default                                  : Yes
Forced                                   : No

Audio #2
ID                                       : 3
Format                                   : AC-3
Format/Info                              : Audio Coding 3
Mode extension                           : CM (complete main)
Format settings, Endianness              : Big
Codec ID                                 : A_AC3
Duration                                 : 1h 28mn
Bit rate mode                            : Constant
Bit rate                                 : 384 Kbps
Channel(s)                               : 6 channels
Channel positions                        : Front: L C R, Side: L R, LFE
Sampling rate                            : 48.0 KHz
Bit depth                                : 16 bits
Compression mode                         : Lossy
Stream size                              : 244 MiB (7%)
Language                                 : English
Default                                  : No
Forced                                   : No

Text #1
ID                                       : 4
Format                                   : UTF-8
Codec ID                                 : S_TEXT/UTF8
Codec ID/Info                            : UTF-8 Plain Text
Language                                 : Spanish
Default                                  : No
Forced                                   : No

Text #2
ID                                       : 5
Format                                   : UTF-8
Codec ID                                 : S_TEXT/UTF8
Codec ID/Info                            : UTF-8 Plain Text
Language                                 : English
Default                                  : No
Forced                                   : No

Menu
00:00:00.000                             : en:Chapter 1
00:07:04.750                             : en:Chapter 2
00:15:42.083                             : en:Chapter 3
00:22:32.625                             : en:Chapter 4
00:29:44.458                             : en:Chapter 5
00:35:14.916                             : en:Chapter 6
00:43:47.041                             : en:Chapter 7
00:52:32.750                             : en:Chapter 8
00:58:05.833                             : en:Chapter 9
01:06:41.458                             : en:Chapter 10
01:16:29.791                             : en:Chapter 11
01:24:36.958                             : en:Chapter 12






1 Link y Links intercambiables



http://gpaste.us/8d9a7f09