Hijo de Texas, Ron Woodroof es un electricista y cowboy de rodeo. De repente, en 1985, Ron es diagnosticado como seropositivo y se le dan 30 días de vida. Sin embargo no acepta la pena de muerte. Un extraño en la comunidad gay, Ron encuentra un improbable aliado en otro paciente con SIDA, Rayón (Jared Leto), un transexual que comparte el deseo de Ron por la vida.



Título: Dallas Buyers Club
Título original: Dallas Buyers Club
País: USA
Estreno en USA: 01/11/2013
Estreno en España: 14/03/2014
Productora: Voltage Pictures, Truth Entertainment
Director: Jean-Marc Vallée
Guión: Chase Palmer
Reparto: Matthew McConaughey, Jared Leto, Jennifer Garner, Steve Zahn, Dallas Roberts, Griffin Dunne, Denis O'Hare, Bradford Cox
Calificación: No recomendada para menores de 16 años

CALIDAD DE VIDEO : BDrip 1080p x264.mkv 1920x800
CALIDAD DE AUDIO : Castellano AC3 5.1 - Ingles DTS 5.1
Subtitulos : Español e Ingles Completos + forzados
TAMAÑO : 9.11 GB

Mediainfo

Código:
Format                                   : Matroska
Format version                           : Version 4 / Version 2
File size                                : 9.11 GiB
Duration                                 : 1h 56mn
Overall bit rate                         : 11.2 Mbps
Encoded date                             : UTC 2014-06-04 14:57:48
Writing application                      : mkvmerge v6.9.1 ('Blue Panther') 64bit built on Apr 18 2014 18:23:38
Writing library                          : libebml v1.3.0 + libmatroska v1.4.1

Video
ID                                       : 1
Format                                   : AVC
Format/Info                              : Advanced Video Codec
Format profile                           : High@L4.0
Format settings, CABAC                   : Yes
Format settings, ReFrames                : 5 frames
Codec ID                                 : V_MPEG4/ISO/AVC
Duration                                 : 1h 56mn
Bit rate                                 : 9 197 Kbps
Width                                    : 1 920 pixels
Height                                   : 800 pixels
Display aspect ratio                     : 2.40:1
Frame rate                               : 23.976 fps
Color space                              : YUV
Chroma subsampling                       : 4:2:0
Bit depth                                : 8 bits
Scan type                                : Progressive
Bits/(Pixel*Frame)                       : 0.250
Stream size                              : 7.33 GiB (80%)
Title                                    : Dallas Buyers Club
Writing library                          : x264 core 140 r2377 1ca7bb9
Encoding settings                        : cabac=1 / ref=5 / deblock=1:0:0 / analyse=0x3:0x133 / me=umh / subme=8 / psy=1 / psy_rd=1.00:0.00 / mixed_ref=1 / me_range=16 / chroma_me=1 / trellis=1 / 8x8dct=1 / cqm=0 / deadzone=21,11 / fast_pskip=0 / chroma_qp_offset=-2 / threads=12 / lookahead_threads=2 / sliced_threads=0 / nr=0 / decimate=1 / interlaced=0 / bluray_compat=0 / constrained_intra=0 / bframes=3 / b_pyramid=2 / b_adapt=2 / b_bias=0 / direct=3 / weightb=1 / open_gop=0 / weightp=2 / keyint=250 / keyint_min=23 / scenecut=40 / intra_refresh=0 / rc_lookahead=50 / rc=2pass / mbtree=1 / bitrate=9197 / ratetol=1.0 / qcomp=0.60 / qpmin=0 / qpmax=69 / qpstep=4 / cplxblur=20.0 / qblur=0.5 / ip_ratio=1.40 / aq=1:1.00
Language                                 : English

Audio #1
ID                                       : 2
Format                                   : AC-3
Format/Info                              : Audio Coding 3
Mode extension                           : CM (complete main)
Codec ID                                 : A_AC3
Duration                                 : 1h 56mn
Bit rate mode                            : Constant
Bit rate                                 : 448 Kbps
Channel(s)                               : 6 channels
Channel positions                        : Front: L C R, Side: L R, LFE
Sampling rate                            : 48.0 KHz
Bit depth                                : 16 bits
Compression mode                         : Lossy
Stream size                              : 375 MiB (4%)
Title                                    : Castellano AC3 5.1
Language                                 : Spanish

Audio #2
ID                                       : 3
Format                                   : DTS
Format/Info                              : Digital Theater Systems
Codec ID                                 : A_DTS
Duration                                 : 1h 56mn
Bit rate mode                            : Constant
Bit rate                                 : 1 510 Kbps
Channel(s)                               : 6 channels
Channel positions                        : Front: L C R, Side: L R, LFE
Sampling rate                            : 48.0 KHz
Bit depth                                : 24 bits
Compression mode                         : Lossy
Stream size                              : 1.23 GiB (14%)
Title                                    : Ingles DTS 5.1
Language                                 : English

Text #1
ID                                       : 4
Format                                   : UTF-8
Codec ID                                 : S_TEXT/UTF8
Codec ID/Info                            : UTF-8 Plain Text
Title                                    : Forzados.
Language                                 : Spanish

Text #2
ID                                       : 5
Format                                   : UTF-8
Codec ID                                 : S_TEXT/UTF8
Codec ID/Info                            : UTF-8 Plain Text
Title                                    : Completos
Language                                 : Spanish

Text #3
ID                                       : 6
Format                                   : UTF-8
Codec ID                                 : S_TEXT/UTF8
Codec ID/Info                            : UTF-8 Plain Text
Title                                    : Completos
Language                                 : English

Menu
00:00:00.000                             : en:Chapter 1
00:06:20.672                             : en:Chapter 2
00:11:52.879                             : en:Chapter 3
00:18:41.578                             : en:Chapter 4
00:24:55.702                             : en:Chapter 5
00:29:44.281                             : en:Chapter 6
00:35:15.697                             : en:Chapter 7
00:41:33.282                             : en:Chapter 8
00:46:32.873                             : en:Chapter 9
00:51:49.023                             : en:Chapter 10
00:55:37.833                             : en:Chapter 11
01:01:25.974                             : en:Chapter 12
01:07:16.782                             : en:Chapter 13
01:12:37.645                             : en:Chapter 14
01:19:55.248                             : en:Chapter 15
01:28:25.550                             : en:Chapter 16
01:36:56.644                             : en:Chapter 17
01:43:06.639                             : en:Chapter 18
01:47:59.472                             : en:Chapter 19
01:52:12.850                             : en:Chapter 20






1 Link y Links intercambiables



http://gpaste.us/d0dcc5d4