http://www.imdb.com/title/tt0295701/

Titulo original
Ano 2002
Duracion 124 min.
Pais Estados Unidos
Director Rob Cohen
Guion Rich Wilkes
Musica Randy Edelman
Fotografia Dean Semler
Reparto Vin Diesel, Samuel L. Jackson, Marton Csokas, Asia Argento, Michael Roof, Eve, Danny Trejo, Tom Everett, Thomas Ian Griffith, Leila Arcieri
Productora Columbia Pictures
Genero Thriller. Accion
Sinopsis Tatuado. Cabeza afeitada. Deslumbrante. Caracter a raudales. La encarnacion del antiautoritarismo. Y, como la letra por la que empieza su nombre, grabada a tinta y aguja en su nuca, E-X-tremo en todos los sentidos. Xander Cage es xXx. Se gana la vida comerciando con videos de sus escalofriantes y disparatadas hazanas, como tirarse en paracaidas desde un coche robado mientras cae por un precipicio de 250 metros. Tras su enesimo enredo con la ley, su mundo esta a punto de dar el mayor giro de su vida. Ha sido "evaluado" por el agente Augustus Gibbons, un agente veterano de la Agencia General de Seguridad cuyo fuerte caracter y cara surcada de cicatrices le delatan como maduro pero decidido guerrero a favor de America. Gibbons y la ANS se enfrentan a una desesperada situacion en Praga, donde sus operativos secretos han sido aniquilados por una banda de matones de vanguardia que se denominan a si mismos Anarquia 99, encabezados por el brutal comandante de la extinta URSS, Yorgi, y su preciosa pero ruda amiga Yelena. Gibbons necesita una nueva raza de agente que se traslade a Praga, pase desapercibido y juegue con las mismas reglas que Anarquia 99 para impedir que destruyan el mundo y asi descubrir lo peligroso que es en realidad su juego. Y Xander, con su asombroso poderio fisico y caracter indiferente es un perfecto candidato, si bien peculiar y completamente involuntario. Gibbons echara mano de todos los medios posibles para demostrar que Xander es el hombre perfecto para esa mision. Gibbons tiene la teoria de que cualquier hombre puede cambiar, por muy perdido que este, si tiene el talento de X, y, por eso, Xander se ve forzado a adquirir una nueva ocupacion y una revisada identidad adecuada a ella:Agente Xander Cage, nombre codigo: xXx


Format : Matroska
Format version : Version 4 / Version 2
File size : 2.56 GiB
Duration : 1h 58mn
Overall bit rate : 3 102 Kbps
Movie name : xXx (2002) [1080p Dual]
Encoded date : UTC 2013-10-17 00:06:11
Writing application : mkvmerge v6.0.0 ('Coming Up For Air') built on Jan 20 2013 09:52:00
Writing library : libebml v1.3.0 + libmatroska v1.4.0
Video
ID : 1
Format : AVC
Format/Info : Advanced Video Codec
Format profile : Main@L4.0
Format settings, CABAC : Yes
Format settings, ReFrames : 4 frames
Codec ID : V_MPEG4/ISO/AVC
Duration : 1h 58mn
Bit rate : 2 500 Kbps
Width : 1 920 pixels
Height : 1 080 pixels
Display aspect ratio : 16:9
Frame rate mode : Constant
Frame rate : 23.976 fps
Color space : YUV
Chroma subsampling : 4:2:0
Bit depth : 8 bits
Scan type : Progressive
Bits/(Pixel*Frame) : 0.050
Stream size : 1.98 GiB (77%)
Writing library : x264 core 130 r2273 b3065e6
Default : Yes
Forced : No
Color primaries : BT.709
Transfer characteristics : BT.709
Matrix coefficients : BT.709
Audio #1
ID : 2
Format : AC-3
Format/Info : Audio Coding 3
Mode extension : CM (complete main)
Format settings, Endianness : Big
Codec ID : A_AC3
Duration : 1h 58mn
Bit rate mode : Constant
Bit rate : 384 Kbps
Channel count : 6 channels
Channel positions : Front: L C R, Side: L R, LFE
Sampling rate : 48.0 KHz
Bit depth : 16 bits
Compression mode : Lossy
Stream size : 324 MiB (12%)
Title : Espanol Latino
Default : Yes
Forced : No
Audio #2
ID : 3
Format : AC-3
Format/Info : Audio Coding 3
Mode extension : CM (complete main)
Format settings, Endianness : Big
Codec ID : A_AC3
Duration : 1h 58mn
Bit rate mode : Constant
Bit rate : 256 Kbps
Channel count : 6 channels
Channel positions : Front: L C R, Side: L R, LFE
Sampling rate : 48.0 KHz
Bit depth : 16 bits
Compression mode : Lossy
Stream size : 216 MiB (8%)
Title : Ingles
Default : No
Forced : No
Text #1
ID : 4
Format : PGS
Muxing mode : zlib
Codec ID : S_HDMV/PGS
Codec ID/Info : The same subtitle format used on BDs/HD-DVDs
Title : Subtitulos Espanol
Default : No
Forced : No
Text #2
ID : 5
Format : UTF-8
Codec ID : S_TEXT/UTF8
Codec ID/Info : UTF-8 Plain Text
Default : Yes
Forced : No