Resultados 1 al 1 de 1

Tema: Moneyball [2011][BRRip 1080p][Audio Latino-Ingles]

  1. #1
    Maestro Alquimista Avatar de Luisfecab
    Pais
    Colombia
    Bandera
    Ingreso
    Oct 2008
    Ubicación
    Cota
    Género
    Agradecer
    19,421
    Agrad. 6,397 veces en 2,669 posteos
    Entradas de blog
    4

    Cuenta Premium Moneyball [2011][BRRip 1080p][Audio Latino-Ingles]

    Moneyball



    Moneyball | Año: 2011 | BRRip 1080p | MKV | AC3 5.1 | Audios: Español Latino, Inglés | Subtítulos: Español, Inglés | Comprimido: Si (Con Registro de Reparación) | 5 Partes (990 MB) | 4.54 GB


    Título original: Moneyball
    Otros títulos: Moneyball: Rompiendo las reglas | El juego de la fortuna
    Año: 2011
    Duración: 133 min.
    País: Estados Unidos
    Dirección: Bennett Miller
    Guion: Aaron Sorkin, Steven Zaillian. Libro: Michael Lewis
    Música: Mychael Danna
    Fotografía: Wally Pfister
    Reparto: Brad Pitt, Jonah Hill, Philip Seymour Hoffman, Robin Wright, Stephen Bishop, Chris Pratt, Tammy Blanchard, Glenn Morshower, Erin Pickett, Sergio Garcia, Jack McGee, Brent Jennings, Ken Medlock, Kerris Dorsey, Vyto Ruginis
    Productora: Columbia Pictures, Michael De Luca, Scott Rudin Productions, Specialty Films
    Género: Drama | Deporte. Béisbol. Basado en hechos reales

    Billy Beane es el director general de un equipo de béisbol de Oakland, que logra mantenerse en los primeros puestos de su categoría e incluso llegar a la final durante varios años consecutivos, y todo ello a pesar de contar con uno de los presupuestos más bajos de todas las grandes ligas.

    Código:
    General
    Unique ID                                : Moneyball.2011.BRRip.1080p.LATiNO.ENG.x264.AC3.mkv
    Format                                   : Matroska
    Format version                           : Version 4
    File size                                : 4.13 GiB
    Duration                                 : 2 h 13 min
    Overall bit rate                         : 4 440 kb/s
    Movie name                               : Moneyball.2011.BRRip.1080p.LATiNO.ENG.x264.AC3
    Encoded date                             : UTC 2021-04-16 20:55:10
    Writing application                      : mkvmerge v56.1.0 ('My Friend') 64-bit
    Writing library                          : libebml v1.4.2 + libmatroska v1.6.4
    
    Video
    ID                                       : 1
    Format                                   : AVC
    Format/Info                              : Advanced Video Codec
    Format profile                           : High@L4.1
    Format settings                          : CABAC / 4 Ref Frames
    Format settings, CABAC                   : Yes
    Format settings, Reference frames        : 4 frames
    Codec ID                                 : V_MPEG4/ISO/AVC
    Duration                                 : 2 h 13 min
    Bit rate                                 : 3 513 kb/s
    Width                                    : 1 920 pixels
    Height                                   : 1 080 pixels
    Display aspect ratio                     : 16:9
    Frame rate mode                          : Constant
    Frame rate                               : 23.976 (24000/1001) FPS
    Color space                              : YUV
    Chroma subsampling                       : 4:2:0
    Bit depth                                : 8 bits
    Scan type                                : Progressive
    Bits/(Pixel*Frame)                       : 0.071
    Stream size                              : 3.27 GiB (79%)
    Writing library                          : x264 core 157 r2935 545de2f
    Default                                  : Yes
    Forced                                   : No
    Color range                              : Limited
    Color primaries                          : BT.709
    Transfer characteristics                 : BT.709
    Matrix coefficients                      : BT.709
    
    Audio #1
    ID                                       : 2
    Format                                   : AC-3
    Format/Info                              : Audio Coding 3
    Commercial name                          : Dolby Digital
    Codec ID                                 : A_AC3
    Duration                                 : 2 h 13 min
    Bit rate mode                            : Constant
    Bit rate                                 : 448 kb/s
    Channel(s)                               : 6 channels
    Channel layout                           : L R C LFE Ls Rs
    Sampling rate                            : 48.0 kHz
    Frame rate                               : 31.250 FPS (1536 SPF)
    Compression mode                         : Lossy
    Delay relative to video                  : -5 ms
    Stream size                              : 427 MiB (10%)
    Language                                 : Spanish
    Service kind                             : Complete Main
    Default                                  : Yes
    Forced                                   : Yes
    
    Audio #2
    ID                                       : 3
    Format                                   : AC-3
    Format/Info                              : Audio Coding 3
    Commercial name                          : Dolby Digital
    Codec ID                                 : A_AC3
    Duration                                 : 2 h 13 min
    Bit rate mode                            : Constant
    Bit rate                                 : 448 kb/s
    Channel(s)                               : 6 channels
    Channel layout                           : L R C LFE Ls Rs
    Sampling rate                            : 48.0 kHz
    Frame rate                               : 31.250 FPS (1536 SPF)
    Compression mode                         : Lossy
    Delay relative to video                  : -5 ms
    Stream size                              : 427 MiB (10%)
    Language                                 : English
    Service kind                             : Complete Main
    Default                                  : No
    Forced                                   : No
    
    Text #1
    ID                                       : 4
    Format                                   : PGS
    Muxing mode                              : zlib
    Codec ID                                 : S_HDMV/PGS
    Codec ID/Info                            : Picture based subtitle format used on BDs/HD-DVDs
    Duration                                 : 2 h 12 min
    Bit rate                                 : 34.1 kb/s
    Count of elements                        : 3334
    Stream size                              : 32.4 MiB (1%)
    Language                                 : Spanish
    Default                                  : No
    Forced                                   : No
    
    Text #2
    ID                                       : 5
    Format                                   : UTF-8
    Codec ID                                 : S_TEXT/UTF8
    Codec ID/Info                            : UTF-8 Plain Text
    Duration                                 : 2 h 12 min
    Bit rate                                 : 63 b/s
    Count of elements                        : 1667
    Stream size                              : 62.0 KiB (0%)
    Language                                 : Spanish
    Default                                  : No
    Forced                                   : No
    
    Text #3
    ID                                       : 6
    Format                                   : PGS
    Muxing mode                              : zlib
    Codec ID                                 : S_HDMV/PGS
    Codec ID/Info                            : Picture based subtitle format used on BDs/HD-DVDs
    Duration                                 : 2 h 4 min
    Bit rate                                 : 41.0 kb/s
    Count of elements                        : 3400
    Stream size                              : 36.5 MiB (1%)
    Language                                 : English
    Default                                  : No
    Forced                                   : No






    Descargar desde
    UPLOADED - RAPIDGATOR - SEND


    Contenido oculto. Comenta o agradece para ver el contenido.

    SI COMENTAS UTILIZANDO LA RESPUESTA RÁPIDA Y NO VISUALIZAS EL CONTENIDO RECUERDA REFRESCAR LA PÁGINA.



    Para descomprimir el archivo debes usar el Winrar v6.xx

    Contenido oculto. Comenta o agradece para ver el contenido.

    SI COMENTAS UTILIZANDO LA RESPUESTA RÁPIDA Y NO VISUALIZAS EL CONTENIDO RECUERDA REFRESCAR LA PÁGINA.




    Enlaces EXCLUSIVOS para nuestra comunidad

    Contenido oculto. Comenta o agradece para ver el contenido.

    SI COMENTAS UTILIZANDO LA RESPUESTA RÁPIDA Y NO VISUALIZAS EL CONTENIDO RECUERDA REFRESCAR LA PÁGINA.



    Si los enlaces están muertos solo avísame respondiendo en el tema y lo soluciono.

    Siempre estoy suscrito a mis aportes.
    Última edición por Luisfecab; 27 04 2021 a las 06:49 PM Razón: Enlaces nuevos

    Reglamento del Foro / Activar Notificación


    "Si tienes el conocimiento; tienes la ventaja....."



  2. El siguiente usuario agradeció a Luisfecab por este aporte:

    artymex (13 07 2021)

Etiquetas para este tema

Permisos de publicación

  • No puedes crear nuevos temas
  • No puedes responder temas
  • No puedes subir archivos adjuntos
  • No puedes editar tus mensajes
  •