Resultados 1 al 1 de 1

Tema: El Cuento Número 13 (2013) [Micro HD1080] [Castellano AC3 5.1] [TERROR]

  1. #1
    Pequeño Hacker Avatar de Mrsherlock
    Pais
    Colombia
    Bandera
    Ingreso
    Jun 2014
    Género
    Agradecer
    0
    Agrad. 33 veces en 30 posteos

    Video El Cuento Número 13 (2013) [Micro HD1080] [Castellano AC3 5.1] [TERROR]






    Vida Winter es una de las novelistas más famosas de toda Inglaterra, cuyo pasado es un completo misterio antes de que se dedicara a escribir. Durante años, biógrafos y reporteros intentaron descubrir la verdad obteniendo como resultado el fracaso.




    Título original: The Thirteenth Tale (TV)
    Año: 2013
    Duración: 90 min.
    País: Reino Unido Reino Unido
    Director: James Kent
    Guión: Christopher Hampton
    Música: Benjamin Wallfisch
    Fotografía: Jean-Philippe Gossart
    Reparto: Sophie Turner, Vanessa Redgrave, Olivia Colman, Alexandra Roach, Steven Mackintosh, Tom Goodman-Hill, Emily Beecham. Robert Pugh. Michael Jibson
    Productora: Heyday Films
    Género: Drama | Telefilm

    Descomprimir: WinRar

    MEDIA INFO

    [spoiler]Format : Matroska
    Format version : Version 4 / Version 2
    File size : 3.37 GiB
    Duration : 1h 29mn
    Overall bit rate : 5 425 Kbps
    Movie name : Otra Exclusiva de... Gabi!!
    Encoded date : UTC 2015-01-26 04:24:03
    Writing application : mkvmerge v7.3.0
    Writing library : libebml v1.3.0 + libmatroska v1.4.1

    Video
    ID : 2
    Format : AVC
    Format/Info : Advanced Video Codec
    Format profile : Baseline@L4.0
    Format settings, CABAC : No
    Format settings, ReFrames : 1 frame
    Codec ID : V_MPEG4/ISO/AVC
    Duration : 1h 29mn
    Bit rate : 5 000 Kbps
    Width : 1 920 pixels
    Height : 1 080 pixels
    Display aspect ratio : 16:9
    Frame rate mode : Constant
    Frame rate : 25.000 fps
    Color space : YUV
    Chroma subsampling : 4:2:0
    Bit depth : 8 bits
    Scan type : Progressive
    Bits/(Pixel*Frame) : 0.096
    Stream size : 3.03 GiB (90%)
    Title : Otra Exclusiva de... Gabi!!
    Writing library : x264 core 118
    Language : Spanish
    Default : Yes
    Forced : No
    DURATION : 01:29:02.848000000
    NUMBER_OF_FRAMES : 166964
    NUMBER_OF_BYTES : 299199488
    STATISTICS_WRITING_APP : mkvmerge v7.3.0


    Audio
    ID : 1
    Format : AC-3
    Format/Info : Audio Coding 3
    Mode extension : CM (complete main)
    Format settings, Endianness : Big
    Codec ID : A_AC3
    Duration : 1h 29mn
    Bit rate mode : Constant
    Bit rate : 448 Kbps
    Channel(s) : 6 channels
    Channel positions : Front: L C R, Side: L R, LFE
    Sampling rate : 48.0 KHz
    Bit depth : 16 bits
    Compression mode : Lossy
    Delay relative to video : 20ms
    Stream size : 285 MiB (10%)
    Language : Spanish
    Default : Yes
    Forced : No
    DURATION : 01:29:03.320000000
    NUMBER_OF_FRAMES : 133583
    NUMBER_OF_BYTES : 2658304482
    [/spoiler]












    1 Link



    Código:
    http://uploaded.net/file/z16hcb4x/Cu3nt0.Num3r0.13.BDR.m1080.flash.rar

    Links Por Partes



    Código:
    http://uploaded.net/file/49l1cma5/Cu3nt0.Num3r0.13.BDR.m1080-flash.part1.rar
    http://uploaded.net/file/94jt1elv/Cu3nt0.Num3r0.13.BDR.m1080-flash.part2.rar
    http://uploaded.net/file/w093uhgr/Cu3nt0.Num3r0.13.BDR.m1080-flash.part3.rar
    http://uploaded.net/file/ljiluqds/Cu3nt0.Num3r0.13.BDR.m1080-flash.part4.rar
    http://uploaded.net/file/ej02n9d1/Cu3nt0.Num3r0.13.BDR.m1080-flash.part5.rar

    Mixto - Uptobox, 1Fichier (Uploaded 110 MB Aproximadamente)




    Código:
    http://uptobox.com/9simzzyh9taa
    http://uptobox.com/svaw9rss4osh
    http://uptobox.com/rqvm8krgxg84
    http://uptobox.com/v3uskeydvuuq
    http://uploaded.net/file/ej02n9d1/Cu3nt0.Num3r0.13.BDR.m1080-flash.part5.rar




    Código:
    https://1fichier.com/?lax84j3euu
    https://1fichier.com/?g94fnlw683
    https://1fichier.com/?y3wyvqbfwc
    https://1fichier.com/?jx1nkzzoxe
    http://uploaded.net/file/ej02n9d1/Cu3nt0.Num3r0.13.BDR.m1080-flash.part5.rar


    Respaldo Por Si Los Links De Arriba Son Eliminados, Siempre Activos



    Código:
    http://www.relink.us/f/ade8ea05a994954639dc492fc1ccd8


  2. El siguiente usuario agradeció a Mrsherlock por este aporte:

    jamie (29 01 2015)

Etiquetas para este tema

Permisos de publicación

  • No puedes crear nuevos temas
  • No puedes responder temas
  • No puedes subir archivos adjuntos
  • No puedes editar tus mensajes
  •