Vida Winter es una de las novelistas más famosas de toda Inglaterra, cuyo pasado es un completo misterio antes de que se dedicara a escribir. Durante años, biógrafos y reporteros intentaron descubrir la verdad obteniendo como resultado el fracaso.




Título original: The Thirteenth Tale (TV)
Año: 2013
Duración: 90 min.
País: Reino Unido Reino Unido
Director: James Kent
Guión: Christopher Hampton
Música: Benjamin Wallfisch
Fotografía: Jean-Philippe Gossart
Reparto: Sophie Turner, Vanessa Redgrave, Olivia Colman, Alexandra Roach, Steven Mackintosh, Tom Goodman-Hill, Emily Beecham. Robert Pugh. Michael Jibson
Productora: Heyday Films
Género: Drama | Telefilm

Descomprimir: WinRar

MEDIA INFO

[spoiler]Format : Matroska
Format version : Version 4 / Version 2
File size : 2.76 GiB
Duration : 1h 29mn
Overall bit rate : 4 430 Kbps
Movie name : Otra Exclusiva de... Gabi!!
Encoded date : UTC 2015-01-26 04:33:31
Writing application : mkvmerge v7.3.0 ('Nouages') 32bit built on Oct 22 2014 18:44:01
Writing library : libebml v1.3.0 + libmatroska v1.4.1

Video
ID : 2
Format : AVC
Format/Info : Advanced Video Codec
Format profile : Baseline@L3.1
Format settings, CABAC : No
Format settings, ReFrames : 1 frame
Codec ID : V_MPEG4/ISO/AVC
Duration : 1h 29mn
Bit rate : 4 000 Kbps
Width : 1 280 pixels
Height : 720 pixels
Display aspect ratio : 16:9
Frame rate mode : Constant
Frame rate : 25.000 fps
Color space : YUV
Chroma subsampling : 4:2:0
Bit depth : 8 bits
Scan type : Progressive
Bits/(Pixel*Frame) : 0.174
Stream size : 2.42 GiB (88%)
Title : Otra Exclusiva de... Gabi!!
Writing library : x264 core 118
Language : Spanish
Default : Yes
Forced : No
DURATION : 01:29:02.848000000
NUMBER_OF_FRAMES : 166964
NUMBER_OF_BYTES : 299199488
_STATISTICS_WRITING_APP : mkvmerge v7.3.0

Audio
ID : 1
Format : AC-3
Format/Info : Audio Coding 3
Mode extension : CM (complete main)
Format settings, Endianness : Big
Codec ID : A_AC3
Duration : 1h 29mn
Bit rate mode : Constant
Bit rate : 448 Kbps
Channel(s) : 6 channels
Channel positions : Front: L C R, Side: L R, LFE
Sampling rate : 48.0 KHz
Bit depth : 16 bits
Compression mode : Lossy
Delay relative to video : 20ms
Stream size : 285 MiB (10%)
Language : Spanish
Default : Yes
Forced : No
DURATION : 01:29:03.320000000
NUMBER_OF_FRAMES : 133583
NUMBER_OF_BYTES : 2658304482[/spoiler]












1 Link



Código:
http://uploaded.net/file/03q1f6m5/Cu3nt0.Num3r0.13.BDR.m720.flash.rar

Links Por Partes



Código:
http://uploaded.net/file/aoy5dgrh/Cu3nt0.Num3r0.13.BDR.m720-flash.part1.rar
http://uploaded.net/file/2rvuvs2a/Cu3nt0.Num3r0.13.BDR.m720-flash.part2.rar
http://uploaded.net/file/o7pi4b7c/Cu3nt0.Num3r0.13.BDR.m720-flash.part3.rar
http://uploaded.net/file/sohgkwzd/Cu3nt0.Num3r0.13.BDR.m720-flash.part4.rar

Mixto - Uptobox, 1Fichier (Uploaded 110 MB Aproximadamente)




Código:
http://uptobox.com/il2vvoldrhrr
http://uptobox.com/x8dkwzk0bd33
http://uptobox.com/ujy49s4qovtu
http://uploaded.net/file/sohgkwzd/Cu3nt0.Num3r0.13.BDR.m720-flash.part4.rar




Código:
https://1fichier.com/?e2ehu2juif
https://1fichier.com/?t7kene80be
https://1fichier.com/?a5b8c08o42
http://uploaded.net/file/sohgkwzd/Cu3nt0.Num3r0.13.BDR.m720-flash.part4.rar


Respaldo Por Si Los Links De Arriba Son Eliminados, Siempre Activos



Código:
http://www.relink.us/f/ece0c133fbd11c2195f80235248bfa