La vida de Jamie es mucho más divertida en su diario, donde demuestra lo importante que es su infinita imaginación.




Título original: Dear Dumb Diary (TV)
Año: 2013
Duración: 84 min.
País: Estados Unidos Estados Unidos
Director: Kristin Hanggi
Guión: Jim Benton, Jim Benton, Kristin Hanggi
Música: Steven Argila
Fotografía: Anka Malatynska
Reparto: Emily Alyn Lind, Mary-Charles Jones, David Mazouz, Sterling Griffith, James Waterston, Lea DeLaria, Maddie Corman, Laura Bell Bundy, Jeffrey Hanson, Tom Markus, Duane Stephens, Jacque Gray
Productora: Zucker Productions / Walden Media / Triple D Productions
Género: Comedia. Infantil | Telefilm

Descomprimir: WinRar

MEDIA INFO

[spoiler]Format : Matroska
Format version : Version 2
File size : 3.08 GiB
Duration : 1h 27mn
Overall bit rate : 5 028 Kbps
Writing application : Lavf53.24.2
Writing library : Lavf53.24.2

Video
ID : 1
Format : AVC
Format/Info : Advanced Video Codec
Format profile : Baseline@L4.0
Format settings, CABAC : No
Format settings, ReFrames : 1 frame
Codec ID : V_MPEG4/ISO/AVC
Duration : 1h 27mn
Bit rate : 4 500 Kbps
Width : 1 920 pixels
Height : 1 080 pixels
Display aspect ratio : 16:9
Frame rate mode : Constant
Frame rate : 23.976 fps
Color space : YUV
Chroma subsampling : 4:2:0
Bit depth : 8 bits
Scan type : Progressive
Bits/(Pixel*Frame) : 0.091
Stream size : 2.75 GiB (89%)
Writing library : x264 core 118
Default : Yes
Forced : No

Audio
ID : 2
Format : AC-3
Format/Info : Audio Coding 3
Mode extension : CM (complete main)
Format settings, Endianness : Big
Codec ID : A_AC3
Duration : 1h 27mn
Bit rate mode : Constant
Bit rate : 448 Kbps
Channel(s) : 6 channels
Channel positions : Front: L C R, Side: L R, LFE
Sampling rate : 48.0 KHz
Bit depth : 16 bits
Compression mode : Lossy
Stream size : 281 MiB (9%)
Default : Yes
Forced : No[/spoiler]












1 Link



Código:
http://uploaded.net/file/flc3o8gv/Qu3r1d0.D1ari0.T0nt0.BDR.m1080.flash.rar

Links Por Partes



Código:
http://uploaded.net/file/pu22adtx/Qu3r1d0.D1ari0.T0nt0.BDR.m1080-flash.part1.rar
http://uploaded.net/file/99lj7l16/Qu3r1d0.D1ari0.T0nt0.BDR.m1080-flash.part2.rar
http://uploaded.net/file/7m7ghzfi/Qu3r1d0.D1ari0.T0nt0.BDR.m1080-flash.part3.rar
http://uploaded.net/file/pcnutqxt/Qu3r1d0.D1ari0.T0nt0.BDR.m1080-flash.part4.rar
http://uploaded.net/file/7t6uqp3d/Qu3r1d0.D1ari0.T0nt0.BDR.m1080-flash.part5.rar

Mixto - Uptobox, 1Fichier (Uploaded 110 MB Aproximadamente)




Código:
http://uptobox.com/55dy2dwty90g
http://uptobox.com/8f0z3hbwpkdd
http://uptobox.com/0sjoylvyarlg
http://uptobox.com/r4hn5e682m44
http://uploaded.net/file/7t6uqp3d/Qu3r1d0.D1ari0.T0nt0.BDR.m1080-flash.part5.rar




Código:
https://1fichier.com/?fn1evee89b
https://1fichier.com/?75c8gj8c42
https://1fichier.com/?7h8mp263gb
https://1fichier.com/?1m8noz6ybr
http://uploaded.net/file/7t6uqp3d/Qu3r1d0.D1ari0.T0nt0.BDR.m1080-flash.part5.rar


Respaldo Por Si Los Links De Arriba Son Eliminados, Siempre Activos



Código:
http://www.relink.us/f/f22b65ee4957198daa5d19f1dfdb67