La vida de Jamie es mucho más divertida en su diario, donde demuestra lo importante que es su infinita imaginación.




Título original: Dear Dumb Diary (TV)
Año: 2013
Duración: 84 min.
País: Estados Unidos Estados Unidos
Director: Kristin Hanggi
Guión: Jim Benton, Jim Benton, Kristin Hanggi
Música: Steven Argila
Fotografía: Anka Malatynska
Reparto: Emily Alyn Lind, Mary-Charles Jones, David Mazouz, Sterling Griffith, James Waterston, Lea DeLaria, Maddie Corman, Laura Bell Bundy, Jeffrey Hanson, Tom Markus, Duane Stephens, Jacque Gray
Productora: Zucker Productions / Walden Media / Triple D Productions
Género: Comedia. Infantil | Telefilm

Descomprimir: WinRar

MEDIA INFO

[spoiler]
Format version : Version 2
File size : 2.78 GiB
Duration : 1h 27mn
Overall bit rate : 4 527 Kbps
Writing application : Lavf53.24.2
Writing library : Lavf53.24.2

Video
ID : 1
Format : AVC
Format/Info : Advanced Video Codec
Format profile : Baseline@L3.1
Format settings, CABAC : No
Format settings, ReFrames : 1 frame
Codec ID : V_MPEG4/ISO/AVC
Duration : 1h 27mn
Bit rate : 4 000 Kbps
Width : 1 280 pixels
Height : 720 pixels
Display aspect ratio : 16:9
Frame rate mode : Constant
Frame rate : 23.976 fps
Color space : YUV
Chroma subsampling : 4:2:0
Bit depth : 8 bits
Scan type : Progressive
Bits/(Pixel*Frame) : 0.181
Stream size : 2.45 GiB (88%)
Writing library : x264 core 118
Default : Yes
Forced : No

Audio
ID : 2
Format : AC-3
Format/Info : Audio Coding 3
Mode extension : CM (complete main)
Format settings, Endianness : Big
Codec ID : A_AC3
Duration : 1h 27mn
Bit rate mode : Constant
Bit rate : 448 Kbps
Channel(s) : 6 channels
Channel positions : Front: L C R, Side: L R, LFE
Sampling rate : 48.0 KHz
Bit depth : 16 bits
Compression mode : Lossy
Stream size : 281 MiB (10%)
Default : Yes
Forced : No[/spoiler]













1 Link



Código:
http://uploaded.net/file/gobgx750/Qu3r1d0.Di4ri0.T0nt0.BDR.m720.flash.rar

Links Por Partes



Código:
http://uploaded.net/file/m3wez7to/Qu3r1d0.Di4ri0.T0nt0.BDR.m720-flash.part1.rar
http://uploaded.net/file/2l1yxwkn/Qu3r1d0.Di4ri0.T0nt0.BDR.m720-flash.part2.rar
http://uploaded.net/file/wje4c3qa/Qu3r1d0.Di4ri0.T0nt0.BDR.m720-flash.part3.rar
http://uploaded.net/file/8ybf3hzd/Qu3r1d0.Di4ri0.T0nt0.BDR.m720-flash.part4.rar

Mixto - Uptobox, 1Fichier (Uploaded 110 MB Aproximadamente)




Código:
http://uptobox.com/wrotpmrcopbu
http://uptobox.com/l4cqc7q9b71f
http://uptobox.com/9qg6xrq4tzot
http://uploaded.net/file/8ybf3hzd/Qu3r1d0.Di4ri0.T0nt0.BDR.m720-flash.part4.rar




Código:
https://1fichier.com/?c54q5qkb8s
https://1fichier.com/?vpzger4h8d
https://1fichier.com/?0hfspovtm7
http://uploaded.net/file/8ybf3hzd/Qu3r1d0.Di4ri0.T0nt0.BDR.m720-flash.part4.rar


Respaldo Por Si Los Links De Arriba Son Eliminados, Siempre Activos



Código:
http://www.relink.us/f/ff2d56be4fb998567096679add30a9