La muerte del patriarca congrega por primera vez en muchos años al clan de los Foxman. El luto de Judd es doble: además de su padre tambien ha muerto su matrimonio. Es de dominio público que Jen, su mujer, tiene un romance con su jefe. Siguiendo la tradición judía, los Foxman deberán permanecer en la casa familiar siete días y siete noches. El conflicto surge al salir a la luz viejas pasiones y rencores del pasado, ocultos durante años. Cuando parece que la situación va a estallar, llega Jen para comunicar una importante noticia: está embarazada.




Título original: This Is Where I Leave You
Año: 2014
Duración: 103 min.
País: Estados Unidos Estados Unidos
Director: Shawn Levy
Guión: Novela: Jonathan Tropper
Música: Michael Giacchino
Fotografía: Terry Stacey
Reparto: Jason Bateman, Tina Fey, Adam Driver, Rose Byrne, Corey Stoll, Kathryn Hahn, Connie Britton, Timothy Olyphant, Dax Shepard, Jane Fonda, Ben Schwartz, Carly Brooke Pearlstein, Debra Monk, Abiagil Spencer
Productora: Spring Creek Productions / Warner Bros.
Género: Comedia | Comedia negra


Descomprimir: WinRar

MEDIA INFO

[spoiler]Format : Matroska
Format version : Version 2
File size : 2.81 GiB
Duration : 1h 43mn
Overall bit rate : 3 893 Kbps
Encoded date : UTC 2015-01-28 18:16:55
Writing application : mkvmerge v5.3.0 ('I could have danced') built on Feb 9 2012 10:38:07
Writing library : libebml v1.2.3 + libmatroska v1.3.0


Video
ID : 1
Format : AVC
Format/Info : Advanced Video Codec
Format profile : High@L4.1
Format settings, CABAC : Yes
Format settings, ReFrames : 12 frames
Codec ID : V_MPEG4/ISO/AVC
Duration : 1h 43mn
Bit rate : 2 995 Kbps
Width : 1 280 pixels
Height : 530 pixels
Display aspect ratio : 2.40:1
Frame rate mode : Constant
Frame rate : 23.976 fps
Color space : YUV
Chroma subsampling : 4:2:0
Bit depth : 8 bits
Scan type : Progressive
Bits/(Pixel*Frame) : 0.184
Stream size : 2.11 GiB (75%)
Writing library : x264 core 142 r2491 24e4fed
Encoding settings : cabac=1 / ref=12 / deblock=1:-3:-3 / analyse=0x3:0x133 / me=umh / subme=10 / psy=1 / psy_rd=1.00:0.07 / mixed_ref=1 / me_range=64 / chroma_me=1 / trellis=2 / 8x8dct=1 / cqm=0 / deadzone=21,11 / fast_pskip=1 / chroma_qp_offset=-3 / threads=12 / lookahead_threads=3 / sliced_threads=0 / nr=0 / decimate=1 / interlaced=0 / bluray_compat=0 / constrained_intra=0 / bframes=13 / b_pyramid=2 / b_adapt=2 / b_bias=0 / direct=3 / weightb=1 / open_gop=0 / weightp=2 / keyint=240 / keyint_min=23 / scenecut=40 / intra_refresh=0 / rc_lookahead=240 / rc=2pass / mbtree=1 / bitrate=2995 / ratetol=1.0 / qcomp=0.60 / qpmin=0 / qpmax=69 / qpstep=4 / cplxblur=20.0 / qblur=0.5 / vbv_maxrate=40000 / vbv_bufsize=30000 / nal_hrd=none / filler=0 / ip_ratio=1.30 / aq=1:1.00
Language : Spanish
Default : Yes
Forced : No
Color primaries : BT.709
Transfer characteristics : BT.709
Matrix coefficients : BT.709


Audio #1
ID : 2
Format : AC-3
Format/Info : Audio Coding 3
Mode extension : CM (complete main)
Format settings, Endianness : Big
Codec ID : A_AC3
Duration : 1h 43mn
Bit rate mode : Constant
Bit rate : 448 Kbps
Channel(s) : 6 channels
Channel positions : Front: L C R, Side: L R, LFE
Sampling rate : 48.0 KHz
Bit depth : 16 bits
Compression mode : Lossy
Stream size : 331 MiB (12%)
Language : Spanish
Default : Yes
Forced : Yes


Audio #2
ID : 3
Format : AC-3
Format/Info : Audio Coding 3
Mode extension : CM (complete main)
Format settings, Endianness : Big
Codec ID : A_AC3
Duration : 1h 43mn
Bit rate mode : Constant
Bit rate : 448 Kbps
Channel(s) : 6 channels
Channel positions : Front: L C R, Side: L R, LFE
Sampling rate : 48.0 KHz
Bit depth : 16 bits
Compression mode : Lossy
Stream size : 331 MiB (12%)
Language : English
Default : No
Forced : No


Text #1
ID : 4
Format : UTF-8
Codec ID : S_TEXT/UTF8
Codec ID/Info : UTF-8 Plain Text
Language : Spanish
Default : No
Forced : No


Text #2
ID : 5
Format : UTF-8
Codec ID : S_TEXT/UTF8
Codec ID/Info : UTF-8 Plain Text
Language : English
Default : No
Forced : No


Menu
00:00:00.000 : en:00:00:00.000
00:09:09.716 : en:00:09:09.716
00:21:54.605 : en:00:21:54.605
00:30:50.348 : en:00:30:50.348
00:39:28.866 : en:00:39:28.866
00:50:38.244 : en:00:50:38.244
01:01:14.254 : en:01:01:14.254
01:09:18.321 : en:01:09:18.321
01:20:55.434 : en:01:20:55.434
01:29:12.514 : en:01:29:12.514
01:40:07.335 : en:01:40:07.335[/spoiler]












1 Link



Código:
http://uploaded.net/file/0cr7tyra/Ahi.OS.qu3d4i5.BDR.m720p.flash.rar

Links Por Partes



Código:
http://uploaded.net/file/400n5jjj/Ahi.OS.qu3d4i5.BDR.m720p-flash.part1.rar
http://uploaded.net/file/adpnemjf/Ahi.OS.qu3d4i5.BDR.m720p-flash.part2.rar
http://uploaded.net/file/2ctdmoqs/Ahi.OS.qu3d4i5.BDR.m720p-flash.part3.rar
http://uploaded.net/file/afl70vhr/Ahi.OS.qu3d4i5.BDR.m720p-flash.part4.rar

Mixto - Uptobox, 1Fichier (Uploaded 110 MB Aproximadamente)




Código:
http://uptobox.com/g84w4xsozyx0
http://uptobox.com/fs0sds7vecne
http://uptobox.com/29p2fyapixus
http://uploaded.net/file/afl70vhr/Ahi.OS.qu3d4i5.BDR.m720p-flash.part4.rar




Código:
https://1fichier.com/?gkhgyaz58n
https://1fichier.com/?vgsrzx72jb
https://1fichier.com/?14db0x7tre
http://uploaded.net/file/afl70vhr/Ahi.OS.qu3d4i5.BDR.m720p-flash.part4.rar


Respaldo Por Si Los Links De Arriba Son Eliminados, Siempre Activos



Código:
http://www.relink.us/f/90ebbb410509eaf35731ac77ada5cc