Marc, profesor de literatura en la universidad de Lausanne, tiene una larga reputación como coleccionista de aventuras amorosas con sus alumnas. Unos días después de la desaparición de Bárbara, la más brillante de sus estudiantes además de su última conquista, Marc se encuentra con Anna, madre de Bárbara, que anda investigando sobre la reciente desaparición de su bella hija.




Título: El amor es un crimen perfecto
Título original: L'amour est un crime parfait
País: Francia, Suiza
Estreno en USA:
Estreno en España: 05/09/2014
Lanzamiento en DVD (alquiler): 21/01/2015
Estreno en Francia: 15/01/2014
Productora: ARENA Productions Gaumont,VEGA Film AG, Entre Chien et Loup, Mollywood
Director: Arnaud Larrieu, Jean-Marie Larrieu
Guión: Arnaud Larrieu, Jean-Marie Larrieu
Reparto: Mathieu Amalric, Karin Viard, Maïwenn, Sara Forestier, Denis Podalydès, Marion Duval, Damien Dorsaz, Carl von Malaisé, Anne-Laure Tondu, Alain Börek, Pierre Maillard, Guilherme Dias Martins, Nora Steining, Baptiste Coustenoble, Fabienne Barras
Género: Thriller | 111 min.

Formato: Matroska BDRip 1080p
Tamaño: 8.00 GiB
Resolución: 1920x784
Audio 1: AC3 5.1 448 Kbps Castellano
Audio 2: DTS 5.1 1509 kbps V.O Francés.
Subs: Español e Ingles. Español Forzados.
Descomprimir: WinRar

MEDIA INFO

[spoiler]Format : Matroska
Format version : Version 2
File size : 8.00 GiB
Duration : 1h 50mn
Overall bit rate : 10.4 Mbps
Movie name : RD
Encoded date : UTC 2015-01-19 22:12:40
Writing application : mkvmerge v5.7.0 ('The Whirlwind') built on Jul 8 2012 20:08:51
Writing library : libebml v1.2.3 + libmatroska v1.3.0

Video
ID : 1
Format : AVC
Format/Info : Advanced Video Codec
Format profile : High@L4.1
Format settings, CABAC : Yes
Format settings, ReFrames : 5 frames
Codec ID : V_MPEG4/ISO/AVC
Duration : 1h 50mn
Bit rate : 8 398 Kbps
Width : 1 920 pixels
Height : 784 pixels
Display aspect ratio : 2.40:1
Frame rate mode : Constant
Frame rate : 24.000 fps
Color space : YUV
Chroma subsampling : 4:2:0
Bit depth : 8 bits
Scan type : Progressive
Bits/(Pixel*Frame) : 0.232
Stream size : 6.33 GiB (79%)
Writing library : x264 core 142 r2431 ac76440
Encoding settings : cabac=1 / ref=5 / deblock=1:-3:-3 / analyse=0x3:0x113 / me=umh / subme=8 / psy=1 / psy_rd=1.00:0.00 / mixed_ref=1 / me_range=16 / chroma_me=1 / trellis=1 / 8x8dct=1 / cqm=0 / deadzone=21,11 / fast_pskip=1 / chroma_qp_offset=-2 / threads=12 / lookahead_threads=2 / sliced_threads=0 / nr=0 / decimate=1 / interlaced=0 / bluray_compat=0 / constrained_intra=0 / bframes=3 / b_pyramid=2 / b_adapt=2 / b_bias=0 / direct=3 / weightb=1 / open_gop=0 / weightp=2 / keyint=240 / keyint_min=24 / scenecut=40 / intra_refresh=0 / rc_lookahead=50 / rc=2pass / mbtree=1 / bitrate=8398 / ratetol=1.0 / qcomp=0.60 / qpmin=0 / qpmax=69 / qpstep=4 / cplxblur=20.0 / qblur=0.5 / ip_ratio=1.40 / aq=1:1.00
Language : English
Default : Yes
Forced : No

Audio #1
ID : 2
Format : AC-3
Format/Info : Audio Coding 3
Mode extension : CM (complete main)
Format settings, Endianness : Big
Codec ID : A_AC3
Duration : 1h 50mn
Bit rate mode : Constant
Bit rate : 448 Kbps
Channel(s) : 6 channels
Channel positions : Front: L C R, Side: L R, LFE
Sampling rate : 48.0 KHz
Bit depth : 16 bits
Compression mode : Lossy
Stream size : 354 MiB (4%)
Language : Spanish
Default : No
Forced : Yes

Audio #2
ID : 3
Format : DTS
Format/Info : Digital Theater Systems
Mode : 16
Format settings, Endianness : Big
Codec ID : A_DTS
Duration : 1h 50mn
Bit rate mode : Constant
Bit rate : 1 509 Kbps
Channel(s) : 6 channels
Channel positions : Front: L C R, Side: L R, LFE
Sampling rate : 48.0 KHz
Bit depth : 24 bits
Compression mode : Lossy
Stream size : 1.17 GiB (15%)
Title : French DTS 1509kbps
Language : French
Default : No
Forced : No

Text #1
ID : 4
Format : UTF-8
Codec ID : S_TEXT/UTF8
Codec ID/Info : UTF-8 Plain Text
Title : Forzados.
Language : Spanish
Default : Yes
Forced : Yes

Text #2
ID : 5
Format : UTF-8
Codec ID : S_TEXT/UTF8
Codec ID/Info : UTF-8 Plain Text
Language : Spanish
Default : No
Forced : No

Text #3
ID : 6
Format : UTF-8
Codec ID : S_TEXT/UTF8
Codec ID/Info : UTF-8 Plain Text
Language : English
Default : No
Forced : No

Menu
00:00:00.000 : en:00:00:00.000
00:08:07.500 : en:00:08:07.500
00:19:23.083 : en:00:19:23.083
00:29:36.958 : en:00:29:36.958
00:37:53.375 : en:00:37:53.375
00:47:14.250 : en:00:47:14.250
00:55:30.500 : en:00:55:30.500
01:05:00.167 : en:01:05:00.167
01:16:24.500 : en:01:16:24.500
01:26:01.208 : en:01:26:01.208
01:34:05.708 : en:01:34:05.708
01:44:33.875 : en:01:44:33.875[/spoiler]












Links Por Partes



Código:
http://uploaded.net/file/f3y25ey3/4morCr1m3n.P3rfect.BDR.HD1080.flash.part01.rar
http://uploaded.net/file/ub4culte/4morCr1m3n.P3rfect.BDR.HD1080.flash.part02.rar
http://uploaded.net/file/vcgsb6tt/4morCr1m3n.P3rfect.BDR.HD1080.flash.part03.rar
http://uploaded.net/file/yvhxw07b/4morCr1m3n.P3rfect.BDR.HD1080.flash.part04.rar
http://uploaded.net/file/xrkjvre6/4morCr1m3n.P3rfect.BDR.HD1080.flash.part05.rar
http://uploaded.net/file/r9icfbzx/4morCr1m3n.P3rfect.BDR.HD1080.flash.part06.rar
http://uploaded.net/file/huoyj1xn/4morCr1m3n.P3rfect.BDR.HD1080.flash.part07.rar
http://uploaded.net/file/erditum0/4morCr1m3n.P3rfect.BDR.HD1080.flash.part08.rar
http://uploaded.net/file/5uhr62rc/4morCr1m3n.P3rfect.BDR.HD1080.flash.part09.rar
http://uploaded.net/file/a59ynow1/4morCr1m3n.P3rfect.BDR.HD1080.flash.part10.rar

Mixto - Uptobox, 1Fichier (Uploaded 110 MB Aproximadamente)




Código:
http://uptobox.com/fkat0pofmqtl
http://uptobox.com/2lsbx8wi2dr1
http://uptobox.com/9jyfbqknprgm
http://uptobox.com/33vklvvnfxwj
http://uptobox.com/y6uc9wteontu
http://uptobox.com/fyvjf8jzv8p3
http://uptobox.com/ivmxcg75rp7n
http://uptobox.com/he145hzmvenh
http://uptobox.com/dugippgamcpd
http://uploaded.net/file/a59ynow1/4morCr1m3n.P3rfect.BDR.HD1080.flash.part10.rar




Código:
https://1fichier.com/?eim3qnnum0
https://1fichier.com/?thiizmdr4u
https://1fichier.com/?gxb7765buw
https://1fichier.com/?zm6m2yrrct
https://1fichier.com/?8dv6uj9orb
https://1fichier.com/?jb142ljibw
https://1fichier.com/?eh0vya4ozz
https://1fichier.com/?itwt548tce
https://1fichier.com/?b9m403sn09
http://uploaded.net/file/a59ynow1/4morCr1m3n.P3rfect.BDR.HD1080.flash.part10.rar


Respaldo Por Si Los Links De Arriba Son Eliminados, Siempre Activos



Código:
http://www.relink.us/f/bc8c3cd8b9c7f75a8ceb6a7f26cad7