Marc, profesor de literatura en la universidad de Lausanne, tiene una larga reputación como coleccionista de aventuras amorosas con sus alumnas. Unos días después de la desaparición de Bárbara, la más brillante de sus estudiantes además de su última conquista, Marc se encuentra con Anna, madre de Bárbara, que anda investigando sobre la reciente desaparición de su bella hija.




Título: El amor es un crimen perfecto
Título original: L'amour est un crime parfait
País: Francia, Suiza
Estreno en USA:
Estreno en España: 05/09/2014
Lanzamiento en DVD (alquiler): 21/01/2015
Estreno en Francia: 15/01/2014
Productora: ARENA Productions Gaumont,VEGA Film AG, Entre Chien et Loup, Mollywood
Director: Arnaud Larrieu, Jean-Marie Larrieu
Guión: Arnaud Larrieu, Jean-Marie Larrieu
Reparto: Mathieu Amalric, Karin Viard, Maïwenn, Sara Forestier, Denis Podalydès, Marion Duval, Damien Dorsaz, Carl von Malaisé, Anne-Laure Tondu, Alain Börek, Pierre Maillard, Guilherme Dias Martins, Nora Steining, Baptiste Coustenoble, Fabienne Barras
Género: Drama. Thriller | Secuestros / Desapariciones. Literatura

Formato: Matroska BDRip microHD 1080p
Tamaño: 4.24 GiB
Resolución: 1920x784
Audio 1: AC3 5.1 448 Kbps Castellano
Audio 2: AC3 5.1 448 Kbps V.O Francés.
Subs: Español e Ingles. Español Forzados.
Descomprimir: WinRar

MEDIA INFO

[spoiler]Format : Matroska
Format version : Version 2
File size : 4.24 GiB
Duration : 1h 50mn
Overall bit rate : 5 486 Kbps
Encoded date : UTC 2015-01-19 18:43:02
Writing application : mkvmerge v5.3.0 ('I could have danced') built on Feb 9 2012 10:38:07
Writing library : libebml v1.2.3 + libmatroska v1.3.0

Video
ID : 1
Format : AVC
Format/Info : Advanced Video Codec
Format profile : High@L4.1
Format settings, CABAC : Yes
Format settings, ReFrames : 2 frames
Codec ID : V_MPEG4/ISO/AVC
Duration : 1h 50mn
Bit rate : 4 588 Kbps
Width : 1 920 pixels
Height : 784 pixels
Display aspect ratio : 2.40:1
Frame rate mode : Constant
Frame rate : 24.000 fps
Color space : YUV
Chroma subsampling : 4:2:0
Bit depth : 8 bits
Scan type : Progressive
Bits/(Pixel*Frame) : 0.127
Stream size : 3.46 GiB (82%)
Writing library : x264 core 142
Encoding settings : cabac=1 / ref=1 / deblock=1:-1:-1 / analyse=0x3:0 / me=hex / subme=5 / psy=0 / mixed_ref=0 / me_range=16 / chroma_me=1 / trellis=0 / 8x8dct=1 / cqm=0 / deadzone=21,11 / fast_pskip=1 / chroma_qp_offset=0 / threads=8 / lookahead_threads=2 / sliced_threads=0 / nr=0 / decimate=1 / interlaced=0 / bluray_compat=0 / constrained_intra=0 / bframes=2 / b_pyramid=0 / b_adapt=1 / b_bias=0 / direct=1 / weightb=1 / open_gop=0 / weightp=0 / keyint=24 / keyint_min=13 / scenecut=40 / intra_refresh=0 / rc=2pass / mbtree=0 / bitrate=4588 / ratetol=1.0 / qcomp=0.60 / qpmin=0 / qpmax=69 / qpstep=4 / cplxblur=20.0 / qblur=0.5 / ip_ratio=1.40 / pb_ratio=1.30 / aq=1:1.00
Default : Yes
Forced : No
Color primaries : BT.709
Transfer characteristics : BT.709
Matrix coefficients : BT.709

Audio #1
ID : 2
Format : AC-3
Format/Info : Audio Coding 3
Mode extension : CM (complete main)
Format settings, Endianness : Big
Codec ID : A_AC3
Duration : 1h 50mn
Bit rate mode : Constant
Bit rate : 448 Kbps
Channel(s) : 6 channels
Channel positions : Front: L C R, Side: L R, LFE
Sampling rate : 48.0 KHz
Bit depth : 16 bits
Compression mode : Lossy
Stream size : 354 MiB (8%)
Language : Spanish
Default : Yes
Forced : Yes

Audio #2
ID : 3
Format : AC-3
Format/Info : Audio Coding 3
Mode extension : CM (complete main)
Format settings, Endianness : Big
Codec ID : A_AC3
Duration : 1h 50mn
Bit rate mode : Constant
Bit rate : 448 Kbps
Channel(s) : 6 channels
Channel positions : Front: L C R, Side: L R, LFE
Sampling rate : 48.0 KHz
Bit depth : 16 bits
Compression mode : Lossy
Stream size : 354 MiB (8%)
Language : French
Default : No
Forced : No

Text #1
ID : 4
Format : UTF-8
Codec ID : S_TEXT/UTF8
Codec ID/Info : UTF-8 Plain Text
Language : Spanish
Default : Yes
Forced : Yes

Text #2
ID : 5
Format : UTF-8
Codec ID : S_TEXT/UTF8
Codec ID/Info : UTF-8 Plain Text
Language : Spanish
Default : No
Forced : No

Text #3
ID : 6
Format : UTF-8
Codec ID : S_TEXT/UTF8
Codec ID/Info : UTF-8 Plain Text
Language : English
Default : No
Forced : No

Menu
00:00:00.000 : en:00:00:00.000
00:08:07.500 : en:00:08:07.500
00:19:23.083 : en:00:19:23.083
00:29:36.958 : en:00:29:36.958
00:37:53.375 : en:00:37:53.375
00:47:14.250 : en:00:47:14.250
00:55:30.500 : en:00:55:30.500
01:05:00.167 : en:01:05:00.167
01:16:24.500 : en:01:16:24.500
01:26:01.208 : en:01:26:01.208
01:34:05.708 : en:01:34:05.708
01:44:33.875 : en:01:44:33.875[/spoiler]












1 Link



Código:
http://uploaded.net/file/72ugs7nx/Crim3nPerfect.BDR.m1080p.flash.rar

Links Por Partes



Código:
http://uploaded.net/file/7cme6r30/Crim3nPerfect.BDR.m1080p-flash.part1.rar
http://uploaded.net/file/yefrtt5c/Crim3nPerfect.BDR.m1080p-flash.part2.rar
http://uploaded.net/file/u87ukefx/Crim3nPerfect.BDR.m1080p-flash.part3.rar
http://uploaded.net/file/dss86xoz/Crim3nPerfect.BDR.m1080p-flash.part4.rar
http://uploaded.net/file/1ekg1tyg/Crim3nPerfect.BDR.m1080p-flash.part5.rar
http://uploaded.net/file/11gi4mmj/Crim3nPerfect.BDR.m1080p-flash.part6.rar

Mixto - Uptobox, 1Fichier (Uploaded 110 MB Aproximadamente)




Código:
http://uptobox.com/5axrp94r5d80
http://uptobox.com/mrnz112mt399
http://uptobox.com/yzmjr8r3h41p
http://uptobox.com/fhyd3kbulr34
http://uptobox.com/mrqjwjjmxxzj
http://uploaded.net/file/11gi4mmj/Crim3nPerfect.BDR.m1080p-flash.part6.rar




Código:
https://1fichier.com/?sxflfln700
https://1fichier.com/?01luwrsb5z
https://1fichier.com/?yzgt50vmxz
https://1fichier.com/?xsjm81gplf
https://1fichier.com/?t6gjiqz6dy
http://uploaded.net/file/11gi4mmj/Crim3nPerfect.BDR.m1080p-flash.part6.rar


Respaldo Por Si Los Links De Arriba Son Eliminados, Siempre Activos



Código:
http://www.relink.us/f/68b60b8ba9f2852f7fca2ab30361dc