Orm y Black Manta planean sus movimientos para atacar al mundo de la superficie tras la invasión del ejército de Apokolips en 'Liga de la Justicia: Guerra' y que supuso unas mortíferas consecuencias para Atlantis. La reina de la civilización submarina perdida busca a su otro hijo, el medio hermano de Orm, Arthur. Viviendo en la superficie con poderes que no entiende, Arthur Cury se acerca a su destino como Aquaman uniéndose a la Liga de la Justicia para salvar y unir a toda la gente del mundo.




Título original: Justice League: Throne of Atlantis
Año: 2015
Duración: 80 min.
País: Estados Unidos Estados Unidos
Director: Ethan Spaulding
Guión: Heath Corson (Cómic: Geoff Johns)
Música: Frederik Wiedmann
Fotografía: Animation
Reparto: Animation
Productora: Warner Bros. Animation / DC Comics / DC Entertainment
Género: Animación. Fantástico. Ciencia ficción. Acción | Superhéroes. Cómic. DC Comics

Formato: Matroska BDRip m1080p
Tamaño: 4.16 GIB
Resolución: 1920x1080
Audio 1: AC3 5.1 640 Kbps Castellano
Audio 2: AC3 5.1 448 kbps Inglés
Subs: Español. Español de España. e Ingles
Descomprimir: WinRar

MEDIA INFO

[spoiler]Format : Matroska
Format version : Version 2
File size : 4.16 GiB
Duration : 1h 12mn
Overall bit rate : 8 255 Kbps
Encoded date : UTC 2015-01-18 18:30:46
Writing application : mkvmerge v5.3.0 ('I could have danced') built on Feb 9 2012 10:38:07
Writing library : libebml v1.2.3 + libmatroska v1.3.0

Video
ID : 1
Format : AVC
Format/Info : Advanced Video Codec
Format profile : High@L4.1
Format settings, CABAC : Yes
Format settings, ReFrames : 4 frames
Codec ID : V_MPEG4/ISO/AVC
Duration : 1h 12mn
Bit rate : 7 155 Kbps
Width : 1 920 pixels
Height : 1 080 pixels
Display aspect ratio : 16:9
Frame rate mode : Constant
Frame rate : 23.976 fps
Color space : YUV
Chroma subsampling : 4:2:0
Bit depth : 8 bits
Scan type : Progressive
Bits/(Pixel*Frame) : 0.144
Stream size : 3.53 GiB (85%)
Writing library : x264 core 144 r2525 40bb568
Encoding settings : cabac=1 / ref=4 / deblock=1:0:0 / analyse=0x3:0x133 / me=umh / subme=7 / psy=1 / psy_rd=1.00:0.00 / mixed_ref=1 / me_range=16 / chroma_me=1 / trellis=1 / 8x8dct=1 / cqm=0 / deadzone=21,11 / fast_pskip=0 / chroma_qp_offset=-2 / threads=60 / lookahead_threads=8 / sliced_threads=0 / nr=0 / decimate=1 / interlaced=0 / bluray_compat=0 / constrained_intra=0 / bframes=3 / b_pyramid=2 / b_adapt=1 / b_bias=0 / direct=1 / weightb=1 / open_gop=0 / weightp=2 / keyint=250 / keyint_min=23 / scenecut=40 / intra_refresh=0 / rc_lookahead=40 / rc=2pass / mbtree=1 / bitrate=7155 / ratetol=1.0 / qcomp=0.60 / qpmin=0 / qpmax=69 / qpstep=4 / cplxblur=20.0 / qblur=0.5 / ip_ratio=1.40 / aq=1:1.00
Language : Spanish
Default : Yes
Forced : No

Audio #1
ID : 2
Format : AC-3
Format/Info : Audio Coding 3
Mode extension : CM (complete main)
Format settings, Endianness : Big
Codec ID : A_AC3
Duration : 1h 12mn
Bit rate mode : Constant
Bit rate : 640 Kbps
Channel(s) : 6 channels
Channel positions : Front: L C R, Side: L R, LFE
Sampling rate : 48.0 KHz
Bit depth : 16 bits
Compression mode : Lossy
Stream size : 330 MiB (8%)
Language : Spanish
Default : Yes
Forced : No

Audio #2
ID : 3
Format : AC-3
Format/Info : Audio Coding 3
Mode extension : CM (complete main)
Format settings, Endianness : Big
Codec ID : A_AC3
Duration : 1h 12mn
Bit rate mode : Constant
Bit rate : 448 Kbps
Channel(s) : 6 channels
Channel positions : Front: L C R, Side: L R, LFE
Sampling rate : 48.0 KHz
Bit depth : 16 bits
Compression mode : Lossy
Stream size : 231 MiB (5%)
Language : English
Default : No
Forced : No

Text #1
ID : 4
Format : UTF-8
Codec ID : S_TEXT/UTF8
Codec ID/Info : UTF-8 Plain Text
Title : Español España
Language : Spanish
Default : No
Forced : No

Text #2
ID : 5
Format : UTF-8
Codec ID : S_TEXT/UTF8
Codec ID/Info : UTF-8 Plain Text
Title : Español Latino
Language : Spanish
Default : No
Forced : No

Text #3
ID : 6
Format : UTF-8
Codec ID : S_TEXT/UTF8
Codec ID/Info : UTF-8 Plain Text
Language : English
Default : No
Forced : No

Menu
00:00:00.000 : en:00:00:00.000
00:02:56.593 : en:00:02:56.593
00:10:36.511 : en:00:10:36.511
00:21:50.267 : en:00:21:50.267
00:31:31.348 : en:00:31:31.348
00:41:24.816 : en:00:41:24.816
00:51:54.278 : en:00:51:54.278
01:00:54.150 : en:01:00:54.150
01:07:19.118 : en:01:07:19.118[/spoiler]












1 Link



Código:
http://uploaded.net/file/d19h9hm9/Tr0n0Atl4ntis.BDR.m1080p.flash.rar

Links Por Partes



Código:
http://uploaded.net/file/xhvkd44t/Tr0n0Atl4ntis.BDR.m1080p-flash.part1.rar
http://uploaded.net/file/snn5dd3t/Tr0n0Atl4ntis.BDR.m1080p-flash.part2.rar
http://uploaded.net/file/gayyhdcf/Tr0n0Atl4ntis.BDR.m1080p-flash.part3.rar
http://uploaded.net/file/ujg286t2/Tr0n0Atl4ntis.BDR.m1080p-flash.part4.rar
http://uploaded.net/file/sdgoizxl/Tr0n0Atl4ntis.BDR.m1080p-flash.part5.rar
http://uploaded.net/file/5z5zth0o/Tr0n0Atl4ntis.BDR.m1080p-flash.part6.rar

Mixto - Uptobox, 1Fichier (Uploaded 110 MB Aproximadamente)




Código:
http://uptobox.com/57o7foyteu3z
http://uptobox.com/wgc2299plrxk
http://uptobox.com/8gbh39u4964q
http://uptobox.com/zvvoc3xjgwxe
http://uptobox.com/g4htk91vlsmf
http://uploaded.net/file/5z5zth0o/Tr0n0Atl4ntis.BDR.m1080p-flash.part6.rar




Código:
https://1fichier.com/?2jgfjcx77u
https://1fichier.com/?iwxy7uvgro
https://1fichier.com/?6y2uhxp5cu
https://1fichier.com/?t247wg6fn6
https://1fichier.com/?xcr3hoyrxv
http://uploaded.net/file/5z5zth0o/Tr0n0Atl4ntis.BDR.m1080p-flash.part6.rar


Respaldo Por Si Los Links De Arriba Son Eliminados, Siempre Activos



Código:
http://www.relink.us/f/496e909fbc209b5725a95e96ae5aae