Chadwick Boseman encarna a James Brown en 'I Feel Good'. Basada en la increíble vida del padrino del soul, la película profundiza en la música, la vida y los estados de ánimo del músico, desde su dura infancia hasta que se convierte en una de las figuras más influyentes del siglo XX.




Título: I Feel Good
Título original: Get On Up
País: Estados Unidos
Estreno en USA: 01/08/2014
Estreno en España: 12/12/2014
Productora: Imagine Entertainment, Jagged Films
Director: Tate Taylor
Guión: Jez Butterworth, John-Henry Butterworth
Reparto: Chadwick Boseman, Nelsan Ellis, Viola Davis, Octavia Spencer, Jill Scott, Tika Sumpter, Dan Aykroyd, Keith Robinson, Lennie James, Ralph E. Tresvant, Donald Watkins, Julius Tennon, Joseph Stephens Jr., Corey Sorenson, Billy Slaughter
Calificación: No recomendada para menores de 12 años
Género: Drama | Biográfico. Música

Formato: Matroska BDRip m720p
Tamaño: 3.28 GiB
Resolución: 1280x692
Audio 1: AC3 5.1 384 Kbps Castellano
Audio 2: AC3 5.1 448 kbps Inglés
Subs: Español e Ingles. Español Forzados.
Descomprimir: WinRar

MEDIA INFO

[spoiler]Format : Matroska
Format version : Version 2
File size : 3.28 GiB
Duration : 2h 18mn
Overall bit rate : 3 385 Kbps
Movie name : By RD
Encoded date : UTC 2015-01-17 19:54:10
Writing application : mkvmerge v5.7.0 ('The Whirlwind') built on Jul 8 2012 20:08:51
Writing library : libebml v1.2.3 + libmatroska v1.3.0

Video
ID : 1
Format : AVC
Format/Info : Advanced Video Codec
Format profile : High@L4.1
Format settings, CABAC : Yes
Format settings, ReFrames : 2 frames
Codec ID : V_MPEG4/ISO/AVC
Duration : 2h 18mn
Bit rate : 2 550 Kbps
Width : 1 280 pixels
Height : 692 pixels
Display aspect ratio : 1.85:1
Frame rate mode : Constant
Frame rate : 23.976 fps
Color space : YUV
Chroma subsampling : 4:2:0
Bit depth : 8 bits
Scan type : Progressive
Bits/(Pixel*Frame) : 0.120
Stream size : 2.41 GiB (73%)
Writing library : x264 core 142
Encoding settings : cabac=1 / ref=1 / deblock=1:-1:-1 / analyse=0x3:0 / me=hex / subme=5 / psy=0 / mixed_ref=0 / me_range=16 / chroma_me=1 / trellis=0 / 8x8dct=1 / cqm=0 / deadzone=21,11 / fast_pskip=1 / chroma_qp_offset=0 / threads=8 / lookahead_threads=2 / sliced_threads=0 / nr=0 / decimate=1 / interlaced=0 / bluray_compat=0 / constrained_intra=0 / bframes=2 / b_pyramid=0 / b_adapt=1 / b_bias=0 / direct=1 / weightb=1 / open_gop=0 / weightp=0 / keyint=24 / keyint_min=13 / scenecut=40 / intra_refresh=0 / rc=2pass / mbtree=0 / bitrate=2550 / ratetol=1.0 / qcomp=0.60 / qpmin=0 / qpmax=69 / qpstep=4 / cplxblur=20.0 / qblur=0.5 / ip_ratio=1.40 / pb_ratio=1.30 / aq=1:1.00
Default : Yes
Forced : No
Color primaries : BT.709
Transfer characteristics : BT.709
Matrix coefficients : BT.709

Audio #1
ID : 2
Format : AC-3
Format/Info : Audio Coding 3
Mode extension : CM (complete main)
Format settings, Endianness : Big
Codec ID : A_AC3
Duration : 2h 18mn
Bit rate mode : Constant
Bit rate : 384 Kbps
Channel(s) : 6 channels
Channel positions : Front: L C R, Side: L R, LFE
Sampling rate : 48.0 KHz
Bit depth : 16 bits
Compression mode : Lossy
Stream size : 381 MiB (11%)
Language : Spanish
Default : Yes
Forced : Yes

Audio #2
ID : 3
Format : AC-3
Format/Info : Audio Coding 3
Mode extension : CM (complete main)
Format settings, Endianness : Big
Codec ID : A_AC3
Duration : 2h 18mn
Bit rate mode : Constant
Bit rate : 448 Kbps
Channel(s) : 6 channels
Channel positions : Front: L C R, Side: L R, LFE
Sampling rate : 48.0 KHz
Bit depth : 16 bits
Compression mode : Lossy
Stream size : 445 MiB (13%)
Language : English
Default : No
Forced : No

Text #1
ID : 4
Format : UTF-8
Codec ID : S_TEXT/UTF8
Codec ID/Info : UTF-8 Plain Text
Title : Forzados.
Language : Spanish
Default : Yes
Forced : Yes

Text #2
ID : 5
Format : VobSub
Muxing mode : zlib
Codec ID : S_VOBSUB
Codec ID/Info : The same subtitle format used on DVDs
Title : Completos Estilos.
Language : Spanish
Default : No
Forced : No

Text #3
ID : 6
Format : UTF-8
Codec ID : S_TEXT/UTF8
Codec ID/Info : UTF-8 Plain Text
Title : Completos Planos.
Language : Spanish
Default : No
Forced : No

Text #4
ID : 7
Format : UTF-8
Codec ID : S_TEXT/UTF8
Codec ID/Info : UTF-8 Plain Text
Language : English
Default : No
Forced : No

Menu
00:00:00.000 : en:00:00:00.000
00:06:14.165 : en:00:06:14.165
00:12:15.026 : en:00:12:15.026
00:20:25.015 : en:00:20:25.015
00:28:16.403 : en:00:28:16.403
00:33:14.618 : en:00:33:14.618
00:40:56.204 : en:00:40:56.204
00:46:56.230 : en:00:46:56.230
00:53:33.961 : en:00:53:33.961
00:59:33.487 : en:00:59:33.487
01:05:10.365 : en:01:05:10.365
01:09:50.895 : en:01:09:50.895
01:15:46.834 : en:01:15:46.834
01:22:56.513 : en:01:22:56.513
01:32:55.779 : en:01:32:55.779
01:42:11.125 : en:01:42:11.125
01:50:40.509 : en:01:50:40.509
01:58:14.379 : en:01:58:14.379
02:04:31.506 : en:02:04:31.506
02:10:59.852 : en:02:10:59.852[/spoiler]












1 Link



Código:
http://uploaded.net/file/ohs87jlw/IF33L6ood.BDR.m720.flash.rar

Links Por Partes



Código:
http://uploaded.net/file/nwbj9xis/IF33L6ood.BDR.m720-flash.part1.rar
http://uploaded.net/file/j3ovbm2f/IF33L6ood.BDR.m720-flash.part2.rar
http://uploaded.net/file/7umphvy4/IF33L6ood.BDR.m720-flash.part3.rar
http://uploaded.net/file/kcrgvugc/IF33L6ood.BDR.m720-flash.part4.rar
http://uploaded.net/file/cm557tsv/IF33L6ood.BDR.m720-flash.part5.rar

Mixto - Uptobox, 1Fichier (Uploaded 110 MB Aproximadamente)




Código:
http://uptobox.com/owq9yxn0j3v5
http://uptobox.com/cvho5dkgy0sx
http://uptobox.com/1s9espom4nd4
http://uptobox.com/06p06gitynrv
http://uploaded.net/file/cm557tsv/IF33L6ood.BDR.m720-flash.part5.rar




Código:
https://1fichier.com/?1ge2yk5vym
https://1fichier.com/?tpqpchddny
https://1fichier.com/?38blcr9509
https://1fichier.com/?0eaagxa56q
http://uploaded.net/file/cm557tsv/IF33L6ood.BDR.m720-flash.part5.rar


Respaldo Por Si Los Links De Arriba Son Eliminados, Siempre Activos



Código:
http://www.relink.us/f/9f6ba3c5a02cc92388886c9578b7cf