La historia explora el origen de Dracula, mezcla de vampirismo y la historia real del Príncipe Vlad El Empalador - quien inspiró al Drácula de Bram Stoker -, retratándolo como un héroe en una trágica historia de amor en una oscura época de magia y guerra. En la película veremos como Vlad es un hombre que lucha por su pueblo y su familia, lo que le lleva a hacer un pacto oscuro para garantizar su protección. Este pacto le pone de camino a lo sobrenatural hasta convertirse en el móstruo legendario que todos conocemos.




Título: Drácula: La leyenda jamás contada
Título original: Dracula Untold
País: USA
Estreno en USA: 10/10/2014
Estreno en España: 24/10/2014
Productora: Universal Pictures, Legendary Pictures
Director: Gary Shore
Guión: Matt Sazama, Burk Sharpless
Reparto: Luke Evans, Sarah Gadon, Dominic Cooper, Art Parkinson, Charles Dance, Diarmaid Murtagh, Paul Kaye, William Houston, Noah Huntley, Ronan Vibert, Zach McGowan, Ferdinand Kingsley, Joseph Long, Thor Kristjansson, Jakub Gierszal
Calificación: No recomendada para menores de 16 años
Género: Terror. Drama | Vampiros. Drácula. Biográfico

Formato: Matroska BDRip microHD 720p (FUENTE BLURAY 1080p)
Tamaño: 2.37 GiB
Resolución: 1280x532
Audio 1: AC3 5.1 448 Kbps Castellano
Audio 2: AC3 5.1 448 Kbps Inglés
Subs: Español e Ingles. Español de España Forzados.
Descomprimir: WinRar

MEDIA INFO

[spoiler]General


Format : Matroska
Format version : Version 2
File size : 2.37 GiB
Duration : 1h 32mn
Overall bit rate : 3 688 Kbps
Movie name : By RD
Encoded date : UTC 2015-01-17 10:53:32
Writing application : mkvmerge v5.7.0 ('The Whirlwind') built on Jul 8 2012 20:08:51
Writing library : libebml v1.2.3 + libmatroska v1.3.0

Video
ID : 1
Format : AVC
Format/Info : Advanced Video Codec
Format profile : High@L4.1
Format settings, CABAC : Yes
Format settings, ReFrames : 2 frames
Codec ID : V_MPEG4/ISO/AVC
Duration : 1h 32mn
Bit rate : 2 792 Kbps
Width : 1 280 pixels
Height : 532 pixels
Display aspect ratio : 2.40:1
Frame rate mode : Constant
Frame rate : 23.976 fps
Color space : YUV
Chroma subsampling : 4:2:0
Bit depth : 8 bits
Scan type : Progressive
Bits/(Pixel*Frame) : 0.171
Stream size : 1.75 GiB (74%)
Writing library : x264 core 142
Encoding settings : cabac=1 / ref=1 / deblock=1:-1:-1 / analyse=0x3:0 / me=hex / subme=5 / psy=0 / mixed_ref=0 / me_range=16 / chroma_me=1 / trellis=0 / 8x8dct=1 / cqm=0 / deadzone=21,11 / fast_pskip=1 / chroma_qp_offset=0 / threads=8 / lookahead_threads=2 / sliced_threads=0 / nr=0 / decimate=1 / interlaced=0 / bluray_compat=0 / constrained_intra=0 / bframes=2 / b_pyramid=0 / b_adapt=1 / b_bias=0 / direct=1 / weightb=1 / open_gop=0 / weightp=0 / keyint=24 / keyint_min=13 / scenecut=40 / intra_refresh=0 / rc=2pass / mbtree=0 / bitrate=2792 / ratetol=1.0 / qcomp=0.60 / qpmin=0 / qpmax=69 / qpstep=4 / cplxblur=20.0 / qblur=0.5 / ip_ratio=1.40 / pb_ratio=1.30 / aq=1:1.00
Default : Yes
Forced : No
Color primaries : BT.709
Transfer characteristics : BT.709
Matrix coefficients : BT.709

Audio #1
ID : 2
Format : AC-3
Format/Info : Audio Coding 3
Mode extension : CM (complete main)
Format settings, Endianness : Big
Codec ID : A_AC3
Duration : 1h 32mn
Bit rate mode : Constant
Bit rate : 448 Kbps
Channel(s) : 6 channels
Channel positions : Front: L C R, Side: L R, LFE
Sampling rate : 48.0 KHz
Bit depth : 16 bits
Compression mode : Lossy
Delay relative to video : 28ms
Stream size : 295 MiB (12%)
Language : Spanish
Default : Yes
Forced : Yes

Audio #2
ID : 3
Format : AC-3
Format/Info : Audio Coding 3
Mode extension : CM (complete main)
Format settings, Endianness : Big
Codec ID : A_AC3
Duration : 1h 32mn
Bit rate mode : Constant
Bit rate : 448 Kbps
Channel(s) : 6 channels
Channel positions : Front: L C R, Side: L R, LFE
Sampling rate : 48.0 KHz
Bit depth : 16 bits
Compression mode : Lossy
Stream size : 295 MiB (12%)
Language : English
Default : No
Forced : No

Text #1
ID : 4
Format : UTF-8
Codec ID : S_TEXT/UTF8
Codec ID/Info : UTF-8 Plain Text
Title : Forzados.
Language : Spanish
Default : Yes
Forced : Yes

Text #2
ID : 5
Format : UTF-8
Codec ID : S_TEXT/UTF8
Codec ID/Info : UTF-8 Plain Text
Title : Completos.
Language : Spanish
Default : No
Forced : No

Text #3
ID : 6
Format : VobSub
Muxing mode : zlib
Codec ID : S_VOBSUB
Codec ID/Info : The same subtitle format used on DVDs
Title : Completos Español España.
Language : Spanish
Default : No
Forced : No

Text #4
ID : 7
Format : UTF-8
Codec ID : S_TEXT/UTF8
Codec ID/Info : UTF-8 Plain Text
Language : English
Default : No
Forced : No

Menu
00:00:00.000 : en:00:00:00.000
00:04:07.289 : en:00:04:07.289
00:07:20.565 : en:00:07:20.565
00:11:32.817 : en:00:11:32.817
00:16:30.698 : en:00:16:30.698
00:22:53.664 : en:00:22:53.664
00:30:23.447 : en:00:30:23.447
00:34:16.763 : en:00:34:16.763
00:38:57.043 : en:00:38:57.043
00:43:00.369 : en:00:43:00.369
00:47:03.738 : en:00:47:03.738
00:53:16.735 : en:00:53:16.735
00:57:39.831 : en:00:57:39.831
01:00:47.310 : en:01:00:47.310
01:04:30.033 : en:01:04:30.033
01:09:12.190 : en:01:09:12.190
01:12:47.613 : en:01:12:47.613
01:17:11.877 : en:01:17:11.877
01:21:52.658 : en:01:21:52.658
01:25:02.556 : en:01:25:02.556[/spoiler]












1 Link



Código:
http://uploaded.net/file/z85bseml/Dr4cul4_BDR.m720.flash.rar

Links Por Partes



Código:
http://uploaded.net/file/jhm7r7nt/Dr4cul4_BDR.m720-flash.part1.rar
http://uploaded.net/file/f0ica65t/Dr4cul4_BDR.m720-flash.part2.rar
http://uploaded.net/file/jqg6oxpq/Dr4cul4_BDR.m720-flash.part3.rar
http://uploaded.net/file/4x08vzzs/Dr4cul4_BDR.m720-flash.part4.rar

Mixto - Uptobox, 1Fichier (Uploaded 110 MB Aproximadamente)




Código:
http://uptobox.com/4seynh1pd9lg
http://uptobox.com/v53y9acekwqv
http://uptobox.com/ke27y2nub4ga
http://uploaded.net/file/4x08vzzs/Dr4cul4_BDR.m720-flash.part4.rar




Código:
https://1fichier.com/?d4p98ligwr
https://1fichier.com/?wu1jm7rsdh
https://1fichier.com/?fbqfmc4xyg
http://uploaded.net/file/4x08vzzs/Dr4cul4_BDR.m720-flash.part4.rar


Respaldo Por Si Los Links De Arriba Son Eliminados, Siempre Activos



Código:
http://www.relink.us/f/93c1bd00289d64720aafa07060b7f4