'La Entrega' sigue las huellas del solitario camarero Bob Saginowski (Tom Hardy) a través de un programa clandestino del submundo de los bares de Brooklyn -llamado "buzones de dinero"-, cuyo fin es canalizar dinero en efectivo hacia gánsteres locales. Bajo la pesada mano de su patrono y primo Marv (James Gandolfini), Bob se ve metido en medio de un robo que sale mal y enredado en una investigación que hurga muy hondo en el pasado de un barrio en el que amigos, familias y enemigos trabajan juntos para ganarse la vida? cueste lo que cueste.




Título: La entrega (The Drop)
Título original: The Drop
País: USA
Estreno en USA: 12/09/2014
Estreno en España: 26/09/2014
Productora: Fox Searchlight, Chernin Entertainment
Director: Michael Roskam
Guión: Michael Roskam, Dennis Lehane
Reparto: Tom Hardy, Noomi Rapace, James Gandolfini, Erin Darke, Elizabeth Rodriguez, Matthias Schoenaerts, James Frecheville, Jeremy Bobb, Chris Sullivan, John Ortiz, Patricia Squire, James Colby, Morgan Spector, Michael Esper, Michael Aronov
Calificación: No recomendada para menores de 16 años
Género: Thriller. Drama | Crimen. Mafia

Formato: Matroska BDRip 1080p
Calidad de Video: AVC @10,8Mbps - High@L4.1 - Codificación CRF
Tamaño: 9,73GIB
Resolución: 1920x800
Audio 1: AC3 5.1 @448 Kbps Castellano
Audio 2: DTS 5.1 @1509 kbps Inglés
Subs: Español de España e Ingles. Español de España Forzados.
Descomprimir: WinRar

MEDIA INFO

[spoiler]Format : Matroska
Format version : Version 2
File size : 9.73 GiB
Duration : 1h 46mn
Overall bit rate : 13.0 Mbps
Encoded date : UTC 2015-01-16 06:34:16
Writing application : mkvmerge v5.3.0 ('I could have danced') built on Feb 9 2012 10:38:07
Writing library : libebml v1.2.3 + libmatroska v1.3.0

Video
ID : 1
Format : AVC
Format/Info : Advanced Video Codec
Format profile : High@L4.1
Format settings, CABAC : Yes
Format settings, ReFrames : 5 frames
Codec ID : V_MPEG4/ISO/AVC
Duration : 1h 46mn
Bit rate : 10.8 Mbps
Width : 1 920 pixels
Height : 800 pixels
Display aspect ratio : 2.40:1
Frame rate mode : Constant
Frame rate : 23.976 fps
Color space : YUV
Chroma subsampling : 4:2:0
Bit depth : 8 bits
Scan type : Progressive
Bits/(Pixel*Frame) : 0.294
Stream size : 8.07 GiB (83%)
Writing library : x264 core 142 r2431+42 c69a006 tMod [8-bit@4:2:0 X86_64]
Encoding settings : cabac=1 / ref=5 / deblock=1:-3:-3 / analyse=0x3:0x133 / me=umh / subme=10 / psy=1 / fade_compensate=0.00 / psy_rd=1.00:0.00 / mixed_ref=1 / me_range=24 / chroma_me=1 / trellis=2 / 8x8dct=1 / cqm=0 / deadzone=21,11 / fast_pskip=1 / chroma_qp_offset=-2 / threads=12 / lookahead_threads=2 / sliced_threads=0 / nr=0 / decimate=1 / interlaced=0 / bluray_compat=0 / constrained_intra=0 / fgo=0 / bframes=9 / b_pyramid=2 / b_adapt=2 / b_bias=0 / direct=3 / weightb=1 / open_gop=0 / weightp=2 / keyint=250 / keyint_min=23 / scenecut=40 / intra_refresh=0 / rc=crf / mbtree=0 / crf=17.3000 / qcomp=0.65 / qpmin=0:0:0 / qpmax=69:69:69 / qpstep=4 / ip_ratio=1.40 / pb_ratio=1.30 / aq=1:0.85 / aq-sensitivity=10.00 / aq-factor=1.00:1.00:1.00 / aq2=0 / aq3=0
Language : English
Default : Yes
Forced : No
Matrix coefficients : BT.709

Audio #1
ID : 2
Format : AC-3
Format/Info : Audio Coding 3
Mode extension : CM (complete main)
Format settings, Endianness : Big
Codec ID : A_AC3
Duration : 1h 46mn
Bit rate mode : Constant
Bit rate : 448 Kbps
Channel(s) : 6 channels
Channel positions : Front: L C R, Side: L R, LFE
Sampling rate : 48.0 KHz
Bit depth : 16 bits
Compression mode : Lossy
Stream size : 342 MiB (3%)
Title : Castellano AC3 5.1
Language : Spanish
Default : Yes
Forced : Yes

Audio #2
ID : 3
Format : DTS
Format/Info : Digital Theater Systems
Mode : 16
Format settings, Endianness : Big
Codec ID : A_DTS
Duration : 1h 46mn
Bit rate mode : Constant
Bit rate : 1 509 Kbps
Channel(s) : 6 channels
Channel positions : Front: L C R, Side: L R, LFE
Sampling rate : 48.0 KHz
Bit depth : 24 bits
Compression mode : Lossy
Stream size : 1.13 GiB (12%)
Language : English
Default : No
Forced : No

Text #1
ID : 4
Format : UTF-8
Codec ID : S_TEXT/UTF8
Codec ID/Info : UTF-8 Plain Text
Title : Forzados.
Language : Spanish
Default : Yes
Forced : Yes

Text #2
ID : 5
Format : UTF-8
Codec ID : S_TEXT/UTF8
Codec ID/Info : UTF-8 Plain Text
Language : Spanish
Default : No
Forced : No

Text #3
ID : 6
Format : UTF-8
Codec ID : S_TEXT/UTF8
Codec ID/Info : UTF-8 Plain Text
Language : English
Default : No
Forced : No

Menu
00:00:00.000 : en:00:00:00.000
00:02:25.354 : en:00:02:25.354
00:05:59.859 : en:00:05:59.859
00:08:09.155 : en:00:08:09.155
00:11:34.777 : en:00:11:34.777
00:13:48.745 : en:00:13:48.745
00:17:28.923 : en:00:17:28.923
00:21:37.213 : en:00:21:37.213
00:25:40.831 : en:00:25:40.831
00:27:53.463 : en:00:27:53.463
00:32:02.337 : en:00:32:02.337
00:36:19.552 : en:00:36:19.552
00:38:15.752 : en:00:38:15.752
00:40:35.141 : en:00:40:35.141
00:44:05.476 : en:00:44:05.476
00:46:47.471 : en:00:46:47.471
00:48:42.711 : en:00:48:42.711
00:52:50.584 : en:00:52:50.584
00:56:28.176 : en:00:56:28.176
01:01:40.530 : en:01:01:40.530
01:05:43.106 : en:01:05:43.106
01:07:36.803 : en:01:07:36.803
01:11:13.519 : en:01:11:13.519
01:12:32.598 : en:01:12:32.598
01:15:09.505 : en:01:15:09.505
01:21:11.742 : en:01:21:11.742
01:24:10.087 : en:01:24:10.087
01:28:27.260 : en:01:28:27.260
01:30:51.404 : en:01:30:51.404
01:34:54.480 : en:01:34:54.480
01:39:00.893 : en:01:39:00.893
01:41:16.237 : en:01:41:16.237[/spoiler]












Links Por Partes



Código:
http://uploaded.net/file/f802m0gb/Entr3g4.BDR.HD1080p.flash.part01.rar
http://uploaded.net/file/dcqtycdw/Entr3g4.BDR.HD1080p.flash.part02.rar
http://uploaded.net/file/zrk731xp/Entr3g4.BDR.HD1080p.flash.part03.rar
http://uploaded.net/file/gy5e0bss/Entr3g4.BDR.HD1080p.flash.part04.rar
http://uploaded.net/file/ylh711p2/Entr3g4.BDR.HD1080p.flash.part05.rar
http://uploaded.net/file/2ssow9s7/Entr3g4.BDR.HD1080p.flash.part06.rar
http://uploaded.net/file/j6jzjjwe/Entr3g4.BDR.HD1080p.flash.part07.rar
http://uploaded.net/file/8s9rk30r/Entr3g4.BDR.HD1080p.flash.part08.rar
http://uploaded.net/file/9x7ici97/Entr3g4.BDR.HD1080p.flash.part09.rar
http://uploaded.net/file/vj0oduq2/Entr3g4.BDR.HD1080p.flash.part10.rar
http://uploaded.net/file/uwge4669/Entr3g4.BDR.HD1080p.flash.part11.rar
http://uploaded.net/file/gor087q2/Entr3g4.BDR.HD1080p.flash.part12.rar

Mixto - Uptobox, 1Fichier (Uploaded 110 MB Aproximadamente)




Código:
http://uptobox.com/cer465w1qv1m
http://uptobox.com/ytb261a8yayn
http://uptobox.com/jbh9sg55l0fg
http://uptobox.com/if5z9dzwa4h5
http://uptobox.com/r3afvzjyd2gt
http://uptobox.com/isagmekb1gyw
http://uptobox.com/z0t8a37kgjpi
http://uptobox.com/tecxqm5hmvv4
http://uptobox.com/x6pmuyrm8qza
http://uptobox.com/ur4gehr8ponk
http://uptobox.com/yqadg5zrx0p7
http://uploaded.net/file/gor087q2/Entr3g4.BDR.HD1080p.flash.part12.rar




Código:
https://1fichier.com/?8mbqm9n6lx
https://1fichier.com/?c756t51gjy
https://1fichier.com/?pq7iwnokxv
https://1fichier.com/?7w6udt1kws
https://1fichier.com/?jgv9yadmeh
https://1fichier.com/?vh41qhe93y
https://1fichier.com/?l8f1fc7qs2
https://1fichier.com/?zqtc2i54k4
https://1fichier.com/?t5g9hz4lwa
https://1fichier.com/?iq6wfzsexa
https://1fichier.com/?tsausfs3w4
http://uploaded.net/file/gor087q2/Entr3g4.BDR.HD1080p.flash.part12.rar


Respaldo Por Si Los Links De Arriba Son Eliminados, Siempre Activos



Código:
http://www.relink.us/f/4c80fe330cd0f5a4c42f8a0be57308