Terri es una mujer devota, madre de dos hijos, que vive una vida suburbana ideal en Atlanta. Tras dejar su puesto de fiscal para dedicarse al cuidado de sus hijos, una noche, un convicto peligroso que ha escapado de la cárcel llamado Colin llama a su puerta alegando que ha sufrido un accidente de coche. Entonces,Terri le ofrece su teléfono para ayudarle, pero pronto se da cuenta de que nada es lo que parece y entonces se verá obligada a luchar por su supervivencia cuando este hombre invada su casa y aterrorice a su familia.




Título: Sin escrúpulos
Título original: No Good Deed
País: USA
Estreno en USA: 12/09/2014
Estreno en España:
Lanzamiento en DVD (alquiler): 02/01/2015
Productora: Screen Gems
Director: Sam Miller
Guión: Aimee Lagos
Reparto: Idris Elba, Taraji P. Henson, Mark Rhino Smith, Kate del Castillo, Frank Brennan, Henry Simmons, Wilbur Fitzgerald, Kenny Alfonso, Alan D. Purwin, Walter Hendrix, Kelly O'Neal, Dolan Wilson, Gregory Marshall Smith, Tatom Pender, Mirage Moonschein
Género: Thriller. Drama | Crimen

Calidad de Video: BDRip m720p 1280x536 By XKlusiveDD®
Calidad de Audio 1: Castellano AC3 5.1 448kbps By XKlusiveDD®
Calidad de Audio 2: Ingles AC3 5.1 448kbps By XKlusiveDD®
Subtitulos Completos: Español e Ingles
Tamaño: 2.54 GB
Descomprimir: WinRar

MEDIA INFO

[spoiler]Format : Matroska
Format version : Version 2
File size : 2.54 GiB
Duration : 1h 25mn
Overall bit rate : 4 250 Kbps
Encoded date : UTC 2014-12-27 06:50:12
Writing application : mkvmerge v5.3.0 ('I could have danced') built on Feb 9 2012 10:38:07
Writing library : libebml v1.2.3 + libmatroska v1.3.0

Video
ID : 1
Format : AVC
Format/Info : Advanced Video Codec
Format profile : High@L4.1
Format settings, CABAC : Yes
Format settings, ReFrames : 4 frames
Codec ID : V_MPEG4/ISO/AVC
Duration : 1h 25mn
Bit rate : 3 269 Kbps
Nominal bit rate : 3 500 Kbps
Width : 1 280 pixels
Height : 536 pixels
Display aspect ratio : 2.40:1
Frame rate mode : Constant
Frame rate : 23.976 fps
Color space : YUV
Chroma subsampling : 4:2:0
Bit depth : 8 bits
Scan type : Progressive
Bits/(Pixel*Frame) : 0.199
Stream size : 1.96 GiB (77%)
Writing library : x264 core 130 r2273 b3065e6
Encoding settings : cabac=1 / ref=1 / deblock=1:0:0 / analyse=0x3:0x113 / me=hex / subme=2 / psy=1 / psy_rd=1.00:0.00 / mixed_ref=0 / me_range=16 / chroma_me=1 / trellis=0 / 8x8dct=1 / cqm=0 / deadzone=21,11 / fast_pskip=1 / chroma_qp_offset=0 / threads=12 / lookahead_threads=4 / sliced_threads=0 / nr=0 / decimate=1 / interlaced=0 / bluray_compat=0 / constrained_intra=0 / bframes=3 / b_pyramid=2 / b_adapt=1 / b_bias=0 / direct=1 / weightb=1 / open_gop=0 / weightp=1 / keyint=240 / keyint_min=24 / scenecut=40 / intra_refresh=0 / rc_lookahead=10 / rc=abr / mbtree=1 / bitrate=3500 / ratetol=1.0 / qcomp=0.60 / qpmin=0 / qpmax=69 / qpstep=4 / vbv_maxrate=62500 / vbv_bufsize=78125 / nal_hrd=none / ip_ratio=1.40 / aq=1:1.00
Language : Spanish
Default : Yes
Forced : No
Color primaries : BT.709
Transfer characteristics : BT.709
Matrix coefficients : BT.709

Audio #1
ID : 2
Format : AC-3
Format/Info : Audio Coding 3
Mode extension : CM (complete main)
Format settings, Endianness : Big
Codec ID : A_AC3
Duration : 1h 25mn
Bit rate mode : Constant
Bit rate : 448 Kbps
Channel(s) : 6 channels
Channel positions : Front: L C R, Side: L R, LFE
Sampling rate : 48.0 KHz
Bit depth : 16 bits
Compression mode : Lossy
Stream size : 275 MiB (11%)
Language : Spanish
Default : Yes
Forced : No

Audio #2
ID : 3
Format : AC-3
Format/Info : Audio Coding 3
Mode extension : CM (complete main)
Format settings, Endianness : Big
Codec ID : A_AC3
Duration : 1h 25mn
Bit rate mode : Constant
Bit rate : 448 Kbps
Channel(s) : 6 channels
Channel positions : Front: L C R, Side: L R, LFE
Sampling rate : 48.0 KHz
Bit depth : 16 bits
Compression mode : Lossy
Stream size : 275 MiB (11%)
Language : English
Default : No
Forced : No

Text #1
ID : 4
Format : UTF-8
Codec ID : S_TEXT/UTF8
Codec ID/Info : UTF-8 Plain Text
Language : Spanish
Default : No
Forced : No

Text #2
ID : 5
Format : UTF-8
Codec ID : S_TEXT/UTF8
Codec ID/Info : UTF-8 Plain Text
Language : English
Default : No
Forced : No

Menu
00:00:00.000 : en:Chapter 1
00:07:43.714 : en:Chapter 2
00:13:47.995 : en:Chapter 3
00:18:16.222 : en:Chapter 4
00:23:17.190 : en:Chapter 5
00:28:47.687 : en:Chapter 6
00:32:50.138 : en:Chapter 7
00:38:17.174 : en:Chapter 8
00:43:39.454 : en:Chapter 9
00:47:30.519 : en:Chapter 10
00:52:32.988 : en:Chapter 11
00:58:31.013 : en:Chapter 12
01:03:35.610 : en:Chapter 13
01:08:52.760 : en:Chapter 14
01:14:03.404 : en:Chapter 15
01:19:33.818 : en:Chapter 16[/spoiler]












Links Por Partes



Código:
http://uploaded.net/file/o30b0hl3/Escrupul0s.BDR.m720p-flash.part1.rar
http://uploaded.net/file/7bmsmsre/Escrupul0s.BDR.m720p-flash.part2.rar
http://uploaded.net/file/w3lfshwt/Escrupul0s.BDR.m720p-flash.part3.rar
http://uploaded.net/file/7kfwd772/Escrupul0s.BDR.m720p-flash.part4.rar

Mixto - Uptobox, 1Fichier (Uploaded 110 MB Aproximadamente)




Código:
http://uptobox.com/rbdggsplor88
http://uptobox.com/b7b3jzb5ye8h
http://uptobox.com/06kn3i2t6tbw
http://uploaded.net/file/7kfwd772/Escrupul0s.BDR.m720p-flash.part4.rar




Código:
https://1fichier.com/?mu2i4shj24
https://1fichier.com/?246tp6umgf
https://1fichier.com/?jvx6d51wjz
http://uploaded.net/file/7kfwd772/Escrupul0s.BDR.m720p-flash.part4.rar


Respaldo Por Si Los Links De Arriba Son Eliminados, Siempre Activos



Código:
http://www.relink.us/f/1f5b73c72fa607317fb74f0987bc6e