Rebeca y su hija viajan camino de la Universidad donde ésta última comenzará sus nuevos estudios. Pero, durante el trayecto, un desconocido las persigue e intenta raptar a la joven. A partir de ese momento, Rebeca comienza una lucha desenfrenada por proteger a su hija.




Título original: A Mother's Rage (Road Trip) (TV)
Año: 2013
Duración: 83 min.
País: Estados Unidos Estados Unidos
Director: Oren Kaplan
Guión: Frederick Cipoletti, Ron Dobson, Shane Mathers, Alejandro Salomon (Historia: Shane Mathers)
Música: Sean Murray
Fotografía: Jeff Dolen
Reparto: Lori Loughlin, Kristen Dalton, Ted McGinley, Jordan Hinson, Alix Elizabeth Gitter, Shaun Sipos
Productora: Helios Productions
Género: Acción | Telefilm. Secuestros / Desapariciones

Descomprimir: WinRar

MEDIA INFO

[spoiler]Format : Matroska
Format version : Version 2
File size : 3.65 GiB
Duration : 1h 22mn
Overall bit rate : 6 320 Kbps
Writing application : Lavf53.24.2
Writing library : Lavf53.24.2

Video
ID : 1
Format : AVC
Format/Info : Advanced Video Codec
Format profile : Baseline@L4.0
Format settings, CABAC : No
Format settings, ReFrames : 1 frame
Codec ID : V_MPEG4/ISO/AVC
Duration : 1h 22mn
Bit rate : 5 900 Kbps
Width : 1 920 pixels
Height : 1 080 pixels
Display aspect ratio : 16:9
Frame rate mode : Constant
Frame rate : 25.000 fps
Color space : YUV
Chroma subsampling : 4:2:0
Bit depth : 8 bits
Scan type : Progressive
Bits/(Pixel*Frame) : 0.114
Stream size : 3.32 GiB (91%)
Writing library : x264 core 118
Default : Yes
Forced : No

Audio
ID : 2
Format : AC-3
Format/Info : Audio Coding 3
Mode extension : CM (complete main)
Format settings, Endianness : Big
Codec ID : A_AC3
Duration : 1h 22mn
Bit rate mode : Constant
Bit rate : 448 Kbps
Channel(s) : 6 channels
Channel positions : Front: L C R, Side: L R, LFE
Sampling rate : 48.0 KHz
Bit depth : 16 bits
Compression mode : Lossy
Stream size : 265 MiB (7%)
Default : Yes
Forced : No[/spoiler]












1 Link



Código:
http://uploaded.net/file/kmxufh2l/Furia.Madre.Micro.HD1080.flash.rar

Links Por Partes



Código:
http://uploaded.net/file/kj219ojk/Furia.Madre.Micro.HD1080-flash.part1.rar
http://uploaded.net/file/pwqb5skh/Furia.Madre.Micro.HD1080-flash.part2.rar
http://uploaded.net/file/ropbyl96/Furia.Madre.Micro.HD1080-flash.part3.rar
http://uploaded.net/file/jhd7gqkq/Furia.Madre.Micro.HD1080-flash.part4.rar
http://uploaded.net/file/04q3thwy/Furia.Madre.Micro.HD1080-flash.part5.rar

Mixto - Uptobox, 1Fichier (Uploaded 110 MB Aproximadamente)




Código:
http://uptobox.com/whrrp0bio5uw
http://uptobox.com/ipgz118fdbdu
http://uptobox.com/6cp7f90b5ggi
http://uptobox.com/8k3hydl89rj9
http://uploaded.net/file/04q3thwy/Furia.Madre.Micro.HD1080-flash.part5.rar




Código:
https://1fichier.com/?42hld4p0po
https://1fichier.com/?gxs0m722fa
https://1fichier.com/?ssuc3b8snw
https://1fichier.com/?hwkz5qu9a9
http://uploaded.net/file/04q3thwy/Furia.Madre.Micro.HD1080-flash.part5.rar


Respaldo Por Si Los Links De Arriba Son Eliminados, Siempre Activos



Código:
http://www.relink.us/f/d06c9e195a2ab29a4ada8bed6385fb