Resultados 1 al 1 de 1

Tema: Las últimas horas (2013) [Micro HD1080p] [Cast(Ac3 5.1)Eng(Ac3)]

  1. #1
    Pequeño Hacker Avatar de Mrsherlock
    Pais
    Colombia
    Bandera
    Ingreso
    Jun 2014
    Género
    Agradecer
    0
    Agrad. 33 veces en 30 posteos

    Video Las últimas horas (2013) [Micro HD1080p] [Cast(Ac3 5.1)Eng(Ac3)]






    ¿Qué harías el último día de la Tierra? James (Nathan Phillips) es un chico obsesionado consigo mismo que quiere tener la última fiesta de todas, en el último día antes del fin del mundo...




    Título original: These Final Hours
    Año: 2014
    Duración: 87 min.
    País: Australia
    Director: Zak Hilditch
    Guión: Zak Hilditch
    Música: Cornel Wilczek
    Fotografía: Bonnie Elliott
    Reparto: Jessica De Gouw, Nathan Phillips, Sarah Snook, David Field, Angourie Rice, Daniel Henshall, Kathryn Beck, Lynette Curran, Lauren Thomas
    Productora: 8th In Line / XYZ Films
    Género: Thriller. Drama | Fin del mundo

    Formato: Matroska BDRip micro 1080p
    Tamaño: 3.34 GiB
    Resolución: 1920x800
    Audio 1: AC3 5.1 448 Kbps Castellano
    Audio 2: AC3 5.1 448 Kbps Ingles
    Subs: Español de España é Ingles.
    Descomprimir: WinRar

    MEDIA INFO

    [spoiler]Format : Matroska
    Format version : Version 4 / Version 2
    File size : 3.34 GiB
    Duration : 1h 26mn
    Overall bit rate : 5 527 Kbps
    Encoded date : UTC 2014-12-11 19:23:22
    Writing application : mkvmerge v6.3.0 ('You can't stop me!') built on Jun 28 2013 20:09:41
    Writing library : libebml v1.3.0 + libmatroska v1.4.0

    Video
    ID : 1
    Format : AVC
    Format/Info : Advanced Video Codec
    Format profile : High@L4.1
    Format settings, CABAC : Yes
    Format settings, ReFrames : 2 frames
    Codec ID : V_MPEG4/ISO/AVC
    Duration : 1h 26mn
    Bit rate : 4 521 Kbps
    Nominal bit rate : 4 903 Kbps
    Width : 1 920 pixels
    Height : 800 pixels
    Display aspect ratio : 2.40:1
    Frame rate mode : Constant
    Frame rate : 24.000 fps
    Color space : YUV
    Chroma subsampling : 4:2:0
    Bit depth : 8 bits
    Scan type : Progressive
    Bits/(Pixel*Frame) : 0.123
    Stream size : 2.73 GiB (82%)
    Writing library : x264 core 142
    Encoding settings : cabac=1 / ref=1 / deblock=1:-1:-1 / analyse=0x3:0 / me=hex / subme=5 / psy=0 / mixed_ref=0 / me_range=16 / chroma_me=1 / trellis=0 / 8x8dct=1 / cqm=0 / deadzone=21,11 / fast_pskip=1 / chroma_qp_offset=0 / threads=8 / lookahead_threads=2 / sliced_threads=0 / nr=0 / decimate=1 / interlaced=0 / bluray_compat=0 / constrained_intra=0 / bframes=2 / b_pyramid=0 / b_adapt=1 / b_bias=0 / direct=1 / weightb=1 / open_gop=0 / weightp=0 / keyint=24 / keyint_min=13 / scenecut=40 / intra_refresh=0 / rc=abr / mbtree=0 / bitrate=4903 / ratetol=1.0 / qcomp=0.60 / qpmin=0 / qpmax=69 / qpstep=4 / ip_ratio=1.40 / pb_ratio=1.30 / aq=1:1.00
    Default : Yes
    Forced : No
    Color primaries : BT.709
    Transfer characteristics : BT.709
    Matrix coefficients : BT.709

    Audio #1
    ID : 2
    Format : AC-3
    Format/Info : Audio Coding 3
    Mode extension : CM (complete main)
    Format settings, Endianness : Big
    Codec ID : A_AC3
    Duration : 1h 26mn
    Bit rate mode : Constant
    Bit rate : 448 Kbps
    Channel count : 6 channels
    Channel positions : Front: L C R, Side: L R, LFE
    Sampling rate : 48.0 KHz
    Bit depth : 16 bits
    Compression mode : Lossy
    Stream size : 277 MiB (8%)
    Language : Spanish
    Default : Yes
    Forced : No

    Audio #2
    ID : 3
    Format : AC-3
    Format/Info : Audio Coding 3
    Mode extension : CM (complete main)
    Format settings, Endianness : Big
    Codec ID : A_AC3
    Duration : 1h 26mn
    Bit rate mode : Constant
    Bit rate : 448 Kbps
    Channel count : 6 channels
    Channel positions : Front: L C R, Side: L R, LFE
    Sampling rate : 48.0 KHz
    Bit depth : 16 bits
    Compression mode : Lossy
    Stream size : 277 MiB (8%)
    Language : English
    Default : No
    Forced : No

    Text #1
    ID : 4
    Format : UTF-8
    Codec ID : S_TEXT/UTF8
    Codec ID/Info : UTF-8 Plain Text
    Language : Spanish
    Default : No
    Forced : No

    Text #2
    ID : 5
    Format : UTF-8
    Codec ID : S_TEXT/UTF8
    Codec ID/Info : UTF-8 Plain Text
    Language : English
    Default : No
    Forced : No[/spoiler]












    1 Link



    Código:
    http://uploaded.net/file/ioxtivug/ult1m4s.h0r4s.BDR.m1080p.flash.rar

    Links Por Partes



    Código:
    http://uploaded.net/file/ki21k3e1/ult1m4s.h0r4s.BDR.m1080p-flash.part1.rar
    http://uploaded.net/file/nptd9e8n/ult1m4s.h0r4s.BDR.m1080p-flash.part2.rar
    http://uploaded.net/file/irgxyvbf/ult1m4s.h0r4s.BDR.m1080p-flash.part3.rar
    http://uploaded.net/file/p5rx9p54/ult1m4s.h0r4s.BDR.m1080p-flash.part4.rar
    http://uploaded.net/file/o5vc6qqa/ult1m4s.h0r4s.BDR.m1080p-flash.part5.rar

    Mixto - Uptobox, 1Fichier (Uploaded 100 MB Aproximadamente)




    Código:
    http://uptobox.com/cpf445b2uj6f
    http://uptobox.com/6scys853l4vc
    http://uptobox.com/iguid3cwd291
    http://uptobox.com/gcrp14riv10s
    http://uploaded.net/file/o5vc6qqa/ult1m4s.h0r4s.BDR.m1080p-flash.part5.rar




    Código:
    https://1fichier.com/?ezivvcwkrv
    https://1fichier.com/?5uobhgdpv7
    https://1fichier.com/?m7fosu1cgm
    https://1fichier.com/?pwnjupsizv
    http://uploaded.net/file/o5vc6qqa/ult1m4s.h0r4s.BDR.m1080p-flash.part5.rar


    Respaldo Por Si Los Links De Arriba Son Eliminados, Siempre Activos



    Código:
    http://www.relink.us/f/1db026629a65cbdfe306f3f3043560


  2. El siguiente usuario agradeció a Mrsherlock por este aporte:

    vimadimo (11 12 2014)

Etiquetas para este tema

Permisos de publicación

  • No puedes crear nuevos temas
  • No puedes responder temas
  • No puedes subir archivos adjuntos
  • No puedes editar tus mensajes
  •