¿Qué harías el último día de la Tierra? James (Nathan Phillips) es un chico obsesionado consigo mismo que quiere tener la última fiesta de todas, en el último día antes del fin del mundo...




Título original: These Final Hours
Año: 2014
Duración: 87 min.
País: Australia
Director: Zak Hilditch
Guión: Zak Hilditch
Música: Cornel Wilczek
Fotografía: Bonnie Elliott
Reparto: Jessica De Gouw, Nathan Phillips, Sarah Snook, David Field, Angourie Rice, Daniel Henshall, Kathryn Beck, Lynette Curran, Lauren Thomas
Productora: 8th In Line / XYZ Films
Género: Thriller. Drama | Fin del mundo

Formato: Matroska BDRip micro 720p
Tamaño: 2.27 GiB
Resolución: 1280x532
Audio 1: AC3 5.1 448 Kbps Castellano
Audio 2: AC3 5.1 448 Kbps Ingles
Subs: Español de España é Ingles.
Descomprimir: WinRar

MEDIA INFO

[spoiler]Format : Matroska
Format version : Version 4 / Version 2
File size : 2.27 GiB
Duration : 1h 26mn
Overall bit rate : 3 749 Kbps
Encoded date : UTC 2014-12-11 19:21:42
Writing application : mkvmerge v6.3.0 ('You can't stop me!') built on Jun 28 2013 20:09:41
Writing library : libebml v1.3.0 + libmatroska v1.4.0

Video
ID : 1
Format : AVC
Format/Info : Advanced Video Codec
Format profile : High@L4.1
Format settings, CABAC : Yes
Format settings, ReFrames : 2 frames
Codec ID : V_MPEG4/ISO/AVC
Duration : 1h 26mn
Bit rate : 2 779 Kbps
Nominal bit rate : 2 975 Kbps
Width : 1 280 pixels
Height : 532 pixels
Display aspect ratio : 2.40:1
Frame rate mode : Constant
Frame rate : 24.000 fps
Color space : YUV
Chroma subsampling : 4:2:0
Bit depth : 8 bits
Scan type : Progressive
Bits/(Pixel*Frame) : 0.170
Stream size : 1.68 GiB (74%)
Writing library : x264 core 142
Encoding settings : cabac=1 / ref=1 / deblock=1:-1:-1 / analyse=0x3:0 / me=hex / subme=5 / psy=0 / mixed_ref=0 / me_range=16 / chroma_me=1 / trellis=0 / 8x8dct=1 / cqm=0 / deadzone=21,11 / fast_pskip=1 / chroma_qp_offset=0 / threads=8 / lookahead_threads=2 / sliced_threads=0 / nr=0 / decimate=1 / interlaced=0 / bluray_compat=0 / constrained_intra=0 / bframes=2 / b_pyramid=0 / b_adapt=1 / b_bias=0 / direct=1 / weightb=1 / open_gop=0 / weightp=0 / keyint=24 / keyint_min=13 / scenecut=40 / intra_refresh=0 / rc=abr / mbtree=0 / bitrate=2975 / ratetol=1.0 / qcomp=0.60 / qpmin=0 / qpmax=69 / qpstep=4 / ip_ratio=1.40 / pb_ratio=1.30 / aq=1:1.00
Default : Yes
Forced : No
Color primaries : BT.709
Transfer characteristics : BT.709
Matrix coefficients : BT.709

Audio #1
ID : 2
Format : AC-3
Format/Info : Audio Coding 3
Mode extension : CM (complete main)
Format settings, Endianness : Big
Codec ID : A_AC3
Duration : 1h 26mn
Bit rate mode : Constant
Bit rate : 448 Kbps
Channel count : 6 channels
Channel positions : Front: L C R, Side: L R, LFE
Sampling rate : 48.0 KHz
Bit depth : 16 bits
Compression mode : Lossy
Stream size : 277 MiB (12%)
Language : Spanish
Default : Yes
Forced : No

Audio #2
ID : 3
Format : AC-3
Format/Info : Audio Coding 3
Mode extension : CM (complete main)
Format settings, Endianness : Big
Codec ID : A_AC3
Duration : 1h 26mn
Bit rate mode : Constant
Bit rate : 448 Kbps
Channel count : 6 channels
Channel positions : Front: L C R, Side: L R, LFE
Sampling rate : 48.0 KHz
Bit depth : 16 bits
Compression mode : Lossy
Stream size : 277 MiB (12%)
Language : English
Default : No
Forced : No

Text #1
ID : 4
Format : UTF-8
Codec ID : S_TEXT/UTF8
Codec ID/Info : UTF-8 Plain Text
Language : Spanish
Default : No
Forced : No

Text #2
ID : 5
Format : UTF-8
Codec ID : S_TEXT/UTF8
Codec ID/Info : UTF-8 Plain Text
Language : English
Default : No
Forced : No[/spoiler]












1 Link



Código:
http://uploaded.net/file/wfukieqx/ult1m4s.h0r4s.BDR.m720p.flash.rar

Links Por Partes



Código:
http://uploaded.net/file/vmlbxkvb/ult1m4s.h0r4s.BDR.m720p-flash.part1.rar
http://uploaded.net/file/k18jbrcg/ult1m4s.h0r4s.BDR.m720p-flash.part2.rar
http://uploaded.net/file/scq4me57/ult1m4s.h0r4s.BDR.m720p-flash.part3.rar
http://uploaded.net/file/7jqv61av/ult1m4s.h0r4s.BDR.m720p-flash.part4.rar

Mixto - Uptobox, 1Fichier (Uploaded 100 MB Aproximadamente)




Código:
http://uptobox.com/alsx0ptopqoa
http://uptobox.com/4bxlhnnvr9k3
http://uptobox.com/ap69wjr9fn7b
http://uploaded.net/file/7jqv61av/ult1m4s.h0r4s.BDR.m720p-flash.part4.rar




Código:
https://1fichier.com/?ikjjqxcr6t
https://1fichier.com/?69jmcjko4f
https://1fichier.com/?jumhbnh4of
http://uploaded.net/file/7jqv61av/ult1m4s.h0r4s.BDR.m720p-flash.part4.rar


Respaldo Por Si Los Links De Arriba Son Eliminados, Siempre Activos



Código:
http://www.relink.us/f/fedaa1cbf7ecca5a53ca8007b9a410