Simon, un atracador en libertad vigilada, acepta dar el golpe más grande de su vida: el robo del "Florentino", un diamante mítico que va a ser subastado por sus propietarios. Para lograrlo tendrá que acercarse a Julia, una experta en diamantes para quien la subasta supone un importante reto profesional y familiar. Más allá de un robo especialmente arriesgado, Simon conducirá a Julia hacia un destino que nunca habría podido imaginar.




Título: The Last Diamond
Título original: Le dernier diamant
País: Francia
Estreno en USA:
Estreno en España: 14/08/2014
Estreno en Francia: 30/04/2014
Productora: Vertigo, Scope Pictures, Bidibul Productions
Director: Eric Barbier
Guión: Eric Barbier, Marie Eynard
Reparto: Yvan Attal, Bérénice Bejo, Jean-François Stévenin, Antoine Basler, Jacques Spiesser, Annie Cordy, Michel Israel, Isaka Sawadogo, Fabrice Boutique, Ruth Elkrief, Didier Gesquiere, Jehon Gorani, Cecilia Guichart, Corentin Lobet, Alexander Savaneli

Descomprimir: WinRar

MEDIA INFO

[spoiler]Format : Matroska
Format version : Version 4 / Version 2
File size : 7.99 GiB
Duration : 1h 48mn
Overall bit rate : 10.5 Mbps
Movie name :
Encoded date : UTC 2014-12-04 21:11:50
Writing application : mkvmerge v6.5.0 ('Isn't she lovely') built on Oct 20 2013 12:50:05
Writing library : libebml v1.3.0 + libmatroska v1.4.1

Video
ID : 1
Format : AVC
Format/Info : Advanced Video Codec
Format profile : High@L4.1
Format settings, CABAC : Yes
Format settings, ReFrames : 5 frames
Codec ID : V_MPEG4/ISO/AVC
Duration : 1h 48mn
Bit rate : 8 579 Kbps
Width : 1 920 pixels
Height : 808 pixels
Display aspect ratio : 2.40:1
Frame rate mode : Constant
Frame rate : 24.000 fps
Color space : YUV
Chroma subsampling : 4:2:0
Bit depth : 8 bits
Scan type : Progressive
Bits/(Pixel*Frame) : 0.230
Stream size : 6.35 GiB (79%)
Title : The Last Diamond
Writing library : x264 core 142 r2479 dd79a61
Encoding settings : cabac=1 / ref=5 / deblock=1:0:0 / analyse=0x3:0x113 / me=umh / subme=8 / psy=1 / psy_rd=1.00:0.00 / mixed_ref=1 / me_range=16 / chroma_me=1 / trellis=1 / 8x8dct=1 / cqm=0 / deadzone=21,11 / fast_pskip=0 / chroma_qp_offset=-2 / threads=18 / lookahead_threads=3 / sliced_threads=0 / nr=0 / decimate=1 / interlaced=0 / bluray_compat=0 / constrained_intra=0 / bframes=3 / b_pyramid=2 / b_adapt=1 / b_bias=0 / direct=1 / weightb=1 / open_gop=0 / weightp=2 / keyint=250 / keyint_min=24 / scenecut=40 / intra_refresh=0 / rc_lookahead=40 / rc=2pass / mbtree=1 / bitrate=8579 / ratetol=1.0 / qcomp=0.60 / qpmin=0 / qpmax=69 / qpstep=4 / cplxblur=20.0 / qblur=0.5 / ip_ratio=1.40 / aq=1:1.00
Language : English
Default : Yes
Forced : No

Audio #1
ID : 2
Format : AC-3
Format/Info : Audio Coding 3
Mode extension : CM (complete main)
Format settings, Endianness : Big
Codec ID : A_AC3
Duration : 1h 48mn
Bit rate mode : Constant
Bit rate : 448 Kbps
Channel(s) : 6 channels
Channel positions : Front: L C R, Side: L R, LFE
Sampling rate : 48.0 KHz
Bit depth : 16 bits
Compression mode : Lossy
Stream size : 348 MiB (4%)
Language : Spanish
Default : Yes
Forced : No

Audio #2
ID : 3
Format : DTS
Format/Info : Digital Theater Systems
Mode : 16
Format settings, Endianness : Big
Codec ID : A_DTS
Duration : 1h 48mn
Bit rate mode : Constant
Bit rate : 1 509 Kbps
Channel(s) : 6 channels
Channel positions : Front: L C R, Side: L R, LFE
Sampling rate : 48.0 KHz
Bit depth : 24 bits
Compression mode : Lossy
Stream size : 1.14 GiB (14%)
Title : Frances DTS 5.1
Language : French
Default : No
Forced : No

Text
ID : 4
Format : UTF-8
Codec ID : S_TEXT/UTF8
Codec ID/Info : UTF-8 Plain Text
Title : Forzados
Language : Spanish
Default : Yes
Forced : No

Menu
00:00:00.000 : en:00:00:00.000
00:10:40.208 : en:00:10:40.208
00:20:18.458 : en:00:20:18.458
00:31:57.500 : en:00:31:57.500
00:42:42.542 : en:00:42:42.542
00:50:37.375 : en:00:50:37.375
01:05:24.833 : en:01:05:24.833
01:12:58.708 : en:01:12:58.708
01:17:34.500 : en:01:17:34.500
01:29:30.208 : en:01:29:30.208
01:41:11.833 : en:01:41:11.833
01:43:37.083 : en:01:43:37.083[/spoiler]














Links Por Partes



Código:
http://uploaded.net/file/i1hk29eq/L4st.D14m0nd.BDR.HD1080p-flash.part01.rar
http://uploaded.net/file/jymb115o/L4st.D14m0nd.BDR.HD1080p-flash.part02.rar
http://uploaded.net/file/0dexm6pi/L4st.D14m0nd.BDR.HD1080p-flash.part03.rar
http://uploaded.net/file/u46ysfl2/L4st.D14m0nd.BDR.HD1080p-flash.part04.rar
http://uploaded.net/file/v6k3i1ac/L4st.D14m0nd.BDR.HD1080p-flash.part05.rar
http://uploaded.net/file/r1tvssdq/L4st.D14m0nd.BDR.HD1080p-flash.part06.rar
http://uploaded.net/file/t7udgxgp/L4st.D14m0nd.BDR.HD1080p-flash.part07.rar
http://uploaded.net/file/0nadjfgc/L4st.D14m0nd.BDR.HD1080p-flash.part08.rar
http://uploaded.net/file/8kdvu3ti/L4st.D14m0nd.BDR.HD1080p-flash.part09.rar
http://uploaded.net/file/4iy0mgts/L4st.D14m0nd.BDR.HD1080p-flash.part10.rar

Mixto - Uptobox, 1Fichier (Uploaded 100 MB Aproximadamente)




Código:
http://uptobox.com/210dauh1fpal
http://uptobox.com/o731u8vaxvzg
http://uptobox.com/vvxg88kzqh8t
http://uptobox.com/3b7wm16tlrp1
http://uptobox.com/qrv68lx49ijw
http://uptobox.com/d75utf7m76v7
http://uptobox.com/7s8fp5smvnyt
http://uptobox.com/kwixyr2zadov
http://uptobox.com/79xiukhws18q
http://uploaded.net/file/4iy0mgts/L4st.D14m0nd.BDR.HD1080p-flash.part10.rar




Código:
https://1fichier.com/?9lm5yyu8qb
https://1fichier.com/?k307fvji5y
https://1fichier.com/?ojjhmaqqfs
https://1fichier.com/?4jzpbvssva
https://1fichier.com/?n11njs1zs8
https://1fichier.com/?wowf4g5p7v
https://1fichier.com/?hz4ov9xyqn
https://1fichier.com/?lux368rgs9
https://1fichier.com/?w82iyaw0ve
http://uploaded.net/file/4iy0mgts/L4st.D14m0nd.BDR.HD1080p-flash.part10.rar


Respaldo Por Si Los Links De Arriba Son Eliminados, Siempre Activos



Código:
http://www.relink.us/f/0da14dde7adb8757c636c6002561a2