Resultados 1 al 1 de 1

Tema: The Last Diamond (2014) [Micro HD1080p] [Cast(Ac3 5.1)Fra(Ac3)]

  1. #1
    Pequeño Hacker Avatar de Mrsherlock
    Pais
    Colombia
    Bandera
    Ingreso
    Jun 2014
    Género
    Agradecer
    0
    Agrad. 33 veces en 30 posteos

    Video The Last Diamond (2014) [Micro HD1080p] [Cast(Ac3 5.1)Fra(Ac3)]






    Simon, un atracador en libertad vigilada, acepta dar el golpe más grande de su vida: el robo del "Florentino", un diamante mítico que va a ser subastado por sus propietarios. Para lograrlo tendrá que acercarse a Julia, una experta en diamantes para quien la subasta supone un importante reto profesional y familiar. Más allá de un robo especialmente arriesgado, Simon conducirá a Julia hacia un destino que nunca habría podido imaginar.




    Título: The Last Diamond
    Título original: Le dernier diamant
    País: Francia
    Estreno en USA:
    Estreno en España: 14/08/2014
    Estreno en Francia: 30/04/2014
    Productora: Vertigo, Scope Pictures, Bidibul Productions
    Director: Eric Barbier
    Guión: Eric Barbier, Marie Eynard
    Reparto: Yvan Attal, Bérénice Bejo, Jean-François Stévenin, Antoine Basler, Jacques Spiesser, Annie Cordy, Michel Israel, Isaka Sawadogo, Fabrice Boutique, Ruth Elkrief, Didier Gesquiere, Jehon Gorani, Cecilia Guichart, Corentin Lobet, Alexander Savaneli

    Formato: Matroska BDRip m1080p
    Tamaño: 4.18 GiB
    Resolución: 1920x808
    Audio 1: AC3 5.1 448 Kbps Castellano
    Audio 2: AC3 5.1 448 Kbps V.O. Francés
    Subs: Español Forzados
    Descomprimir: WinRar

    MEDIA INFO

    [spoiler]Format : Matroska
    Format version : Version 4 / Version 2
    File size : 4.18 GiB
    Duration : 1h 48mn
    Overall bit rate : 5 509 Kbps
    Movie name :
    Encoded date : UTC 2014-12-04 21:10:30
    Writing application : mkvmerge v6.5.0 ('Isn't she lovely') built on Oct 20 2013 12:50:05
    Writing library : libebml v1.3.0 + libmatroska v1.4.1

    Video
    ID : 1
    Format : AVC
    Format/Info : Advanced Video Codec
    Format profile : High@L4.1
    Format settings, CABAC : Yes
    Format settings, ReFrames : 2 frames
    Codec ID : V_MPEG4/ISO/AVC
    Duration : 1h 48mn
    Bit rate : 4 503 Kbps
    Width : 1 920 pixels
    Height : 808 pixels
    Display aspect ratio : 2.40:1
    Frame rate mode : Constant
    Frame rate : 24.000 fps
    Color space : YUV
    Chroma subsampling : 4:2:0
    Bit depth : 8 bits
    Scan type : Progressive
    Bits/(Pixel*Frame) : 0.121
    Stream size : 3.42 GiB (82%)
    Writing library : x264 core
    Default : Yes
    Forced : No
    Color primaries : BT.709
    Transfer characteristics : BT.709
    Matrix coefficients : BT.709

    Audio #1
    ID : 2
    Format : AC-3
    Format/Info : Audio Coding 3
    Mode extension : CM (complete main)
    Format settings, Endianness : Big
    Codec ID : A_AC3
    Duration : 1h 48mn
    Bit rate mode : Constant
    Bit rate : 448 Kbps
    Channel(s) : 6 channels
    Channel positions : Front: L C R, Side: L R, LFE
    Sampling rate : 48.0 KHz
    Bit depth : 16 bits
    Compression mode : Lossy
    Stream size : 348 MiB (8%)
    Language : Spanish
    Default : Yes
    Forced : No

    Audio #2
    ID : 3
    Format : AC-3
    Format/Info : Audio Coding 3
    Mode extension : CM (complete main)
    Format settings, Endianness : Big
    Codec ID : A_AC3
    Duration : 1h 48mn
    Bit rate mode : Constant
    Bit rate : 448 Kbps
    Channel(s) : 6 channels
    Channel positions : Front: L C R, Side: L R, LFE
    Sampling rate : 48.0 KHz
    Bit depth : 16 bits
    Compression mode : Lossy
    Stream size : 348 MiB (8%)
    Language : French
    Default : No
    Forced : No

    Text
    ID : 4
    Format : UTF-8
    Codec ID : S_TEXT/UTF8
    Codec ID/Info : UTF-8 Plain Text
    Title : Forzados Castellano
    Language : Spanish
    Default : Yes
    Forced : No[/spoiler]











    1 Link



    Código:
    http://uploaded.net/file/82y979vo/L4st.D14m0nd.DBR.m1080p.flash.rar

    Links Por Partes



    Código:
    http://uploaded.net/file/e16lqok3/L4st.D14m0nd.DBR.m1080p-flash.part1.rar
    http://uploaded.net/file/7iizk0o5/L4st.D14m0nd.DBR.m1080p-flash.part2.rar
    http://uploaded.net/file/evuf2lwu/L4st.D14m0nd.DBR.m1080p-flash.part3.rar
    http://uploaded.net/file/8stx3uz9/L4st.D14m0nd.DBR.m1080p-flash.part4.rar
    http://uploaded.net/file/9bccz358/L4st.D14m0nd.DBR.m1080p-flash.part5.rar
    http://uploaded.net/file/dlzuex1q/L4st.D14m0nd.DBR.m1080p-flash.part6.rar

    Mixto - Uptobox, 1Fichier (Uploaded 100 MB Aproximadamente)




    Código:
    http://uptobox.com/k86588glgqjt
    http://uptobox.com/s7ihxwn1wgi6
    http://uptobox.com/ydhk4opn9whq
    http://uptobox.com/h1wyfjrlg7i2
    http://uptobox.com/5qzb43iadzyc
    http://uploaded.net/file/dlzuex1q/L4st.D14m0nd.DBR.m1080p-flash.part6.rar




    Código:
    https://1fichier.com/?go5bfjf54j
    https://1fichier.com/?po3wa4523a
    https://1fichier.com/?no110nat3t
    https://1fichier.com/?80305r4mqb
    https://1fichier.com/?pmc222vkcv
    http://uploaded.net/file/dlzuex1q/L4st.D14m0nd.DBR.m1080p-flash.part6.rar


    Respaldo Por Si Los Links De Arriba Son Eliminados, Siempre Activos



    Código:
    http://www.relink.us/f/a3f63a8b845f3077eb78ad05c70ba9


  2. El siguiente usuario agradeció a Mrsherlock por este aporte:

    vimadimo (08 12 2014)

Etiquetas para este tema

Permisos de publicación

  • No puedes crear nuevos temas
  • No puedes responder temas
  • No puedes subir archivos adjuntos
  • No puedes editar tus mensajes
  •