Simon, un atracador en libertad vigilada, acepta dar el golpe más grande de su vida: el robo del "Florentino", un diamante mítico que va a ser subastado por sus propietarios. Para lograrlo tendrá que acercarse a Julia, una experta en diamantes para quien la subasta supone un importante reto profesional y familiar. Más allá de un robo especialmente arriesgado, Simon conducirá a Julia hacia un destino que nunca habría podido imaginar.




Título: The Last Diamond
Título original: Le dernier diamant
País: Francia
Estreno en USA:
Estreno en España: 14/08/2014
Estreno en Francia: 30/04/2014
Productora: Vertigo, Scope Pictures, Bidibul Productions
Director: Eric Barbier
Guión: Eric Barbier, Marie Eynard
Reparto: Yvan Attal, Bérénice Bejo, Jean-François Stévenin, Antoine Basler, Jacques Spiesser, Annie Cordy, Michel Israel, Isaka Sawadogo, Fabrice Boutique, Ruth Elkrief, Didier Gesquiere, Jehon Gorani, Cecilia Guichart, Corentin Lobet, Alexander Savaneli

Formato: Matroska BDRip m720p
Tamaño: 2.95 GiB
Resolución: 1280x538
Audio 1: AC3 5.1 448 Kbps Castellano
Audio 2: AC3 5.1 448 Kbps V.O. Francés
Subs: Español Forzados
Descomprimir: WinRar

MEDIA INFO

[spoiler]Format : Matroska
Format version : Version 4 / Version 2
File size : 2.95 GiB
Duration : 1h 48mn
Overall bit rate : 3 888 Kbps
Movie name :
Encoded date : UTC 2014-12-04 21:09:53
Writing application : mkvmerge v6.5.0 ('Isn't she lovely') built on Oct 20 2013 12:50:05
Writing library : libebml v1.3.0 + libmatroska v1.4.1

Video
ID : 1
Format : AVC
Format/Info : Advanced Video Codec
Format profile : High@L4.1
Format settings, CABAC : Yes
Format settings, ReFrames : 2 frames
Codec ID : V_MPEG4/ISO/AVC
Duration : 1h 48mn
Bit rate : 2 914 Kbps
Width : 1 280 pixels
Height : 538 pixels
Display aspect ratio : 2.40:1
Frame rate mode : Constant
Frame rate : 24.000 fps
Color space : YUV
Chroma subsampling : 4:2:0
Bit depth : 8 bits
Scan type : Progressive
Bits/(Pixel*Frame) : 0.176
Stream size : 2.21 GiB (75%)
Writing library : x264 core
Default : Yes
Forced : No
Color primaries : BT.709
Transfer characteristics : BT.709
Matrix coefficients : BT.709

Audio #1
ID : 2
Format : AC-3
Format/Info : Audio Coding 3
Mode extension : CM (complete main)
Format settings, Endianness : Big
Codec ID : A_AC3
Duration : 1h 48mn
Bit rate mode : Constant
Bit rate : 448 Kbps
Channel(s) : 6 channels
Channel positions : Front: L C R, Side: L R, LFE
Sampling rate : 48.0 KHz
Bit depth : 16 bits
Compression mode : Lossy
Stream size : 348 MiB (12%)
Language : Spanish
Default : Yes
Forced : No

Audio #2
ID : 3
Format : AC-3
Format/Info : Audio Coding 3
Mode extension : CM (complete main)
Format settings, Endianness : Big
Codec ID : A_AC3
Duration : 1h 48mn
Bit rate mode : Constant
Bit rate : 448 Kbps
Channel(s) : 6 channels
Channel positions : Front: L C R, Side: L R, LFE
Sampling rate : 48.0 KHz
Bit depth : 16 bits
Compression mode : Lossy
Stream size : 348 MiB (12%)
Language : French
Default : No
Forced : No

Text
ID : 4
Format : UTF-8
Codec ID : S_TEXT/UTF8
Codec ID/Info : UTF-8 Plain Text
Title : Forzados Castellano
Language : Spanish
Default : Yes
Forced : No[/spoiler]












1 Link



Código:
http://uploaded.net/file/33elb2h0/L4st.D14m0nd.BDR.m720p.flash.rar

Links Por Partes



Código:
http://uploaded.net/file/7v6d80gr/L4st.D14m0nd.BDR.m720p-flash.part1.rar
http://uploaded.net/file/6gy5s74w/L4st.D14m0nd.BDR.m720p-flash.part2.rar
http://uploaded.net/file/x7y9xhvo/L4st.D14m0nd.BDR.m720p-flash.part3.rar
http://uploaded.net/file/4qyry61g/L4st.D14m0nd.BDR.m720p-flash.part4.rar

Mixto - Uptobox, 1Fichier (Uploaded 100 MB Aproximadamente)




Código:
http://uptobox.com/99mwjsrnh784
http://uptobox.com/qz9l89s1qwgi
http://uptobox.com/6jqwxwx6egvr
http://uploaded.net/file/4qyry61g/L4st.D14m0nd.BDR.m720p-flash.part4.rar




Código:
https://1fichier.com/?hi97bi8wb1
https://1fichier.com/?jmwhn1zg5w
https://1fichier.com/?dw6fu3rmyf
http://uploaded.net/file/4qyry61g/L4st.D14m0nd.BDR.m720p-flash.part4.rar


Respaldo Por Si Los Links De Arriva Son Eliminados, Siempre Activos



Código:
http://www.relink.us/f/908e931507e8750e499bbfca6d8641