Pierre lleva quince años casado y tiene dos hijos. Ama a su mujer y se siente realizado como padre. Es un hombre satisfecho. Una noche conoce a Elsa, con quien compartirá charlas, risas y bromas. Pero Elsa tiene como regla de oro no liarse con hombres casados y Pierre, por su parte, quiere permanecer fiel a su esposa. Dos semanas después se vuelven a encontrar por casualidad y volverán a sentir una fuerte atracción. Será en ese momento cuando sus fantasías comiencen a mezclarse con la realidad.




Título: Reencontrar el amor
Título original: Une rencontre
País: Francia
Estreno en USA:
Estreno en España: 01/08/2014
Lanzamiento en DVD (alquiler): 03/12/2014
Estreno en Francia: 23/04/2014
Lanzamiento en HD-DVD: 03/12/2014
Productora: Bethsabée Mucho
Director: Lisa Azuelos
Guión: Lisa Azuelos
Reparto: Sophie Marceau, François Cluzet, Lisa Azuelos, Alexandre Astier, Arthur Benzaquen, Jonathan Cohen, Niels Schneider, Stéphanie Murat, Olivia Cote, Syrus Shahidi, Lily Taieb, Jules Benchetrit, Tatiana Khayat, Stylane Lecaille, Thaïs Alessandrin

Formato: Matroska BDRip m1080p
Tamaño: 3.40 GiB
Resolución: 1920x808
Audio 1: AC3 5.1 448 Kbps Castellano
Audio 2: AC3 5.1 448 Kbps V.O. Francés
Subs: Español
Descomprimir: WinRar

MEDIA INFO

[spoiler]Format : Matroska
Format version : Version 2
File size : 3.40 GiB
Duration : 1h 21mn
Overall bit rate : 5 969 Kbps
Encoded date : UTC 2014-12-04 08:43:16
Writing application : mkvmerge v5.3.0 ('I could have danced') built on Feb 9 2012 10:38:07
Writing library : libebml v1.2.3 + libmatroska v1.3.0

Video
ID : 1
Format : AVC
Format/Info : Advanced Video Codec
Format profile : High@L4.1
Format settings, CABAC : Yes
Format settings, ReFrames : 2 frames
Codec ID : V_MPEG4/ISO/AVC
Duration : 1h 21mn
Bit rate : 5 064 Kbps
Width : 1 920 pixels
Height : 808 pixels
Display aspect ratio : 2.40:1
Frame rate mode : Constant
Frame rate : 24.000 fps
Color space : YUV
Chroma subsampling : 4:2:0
Bit depth : 8 bits
Scan type : Progressive
Bits/(Pixel*Frame) : 0.136
Stream size : 2.82 GiB (83%)
Writing library : x264 core 142
Encoding settings : cabac=1 / ref=1 / deblock=1:-1:-1 / analyse=0x3:0 / me=hex / subme=5 / psy=0 / mixed_ref=0 / me_range=16 / chroma_me=1 / trellis=0 / 8x8dct=1 / cqm=0 / deadzone=21,11 / fast_pskip=1 / chroma_qp_offset=0 / threads=8 / lookahead_threads=2 / sliced_threads=0 / nr=0 / decimate=1 / interlaced=0 / bluray_compat=0 / constrained_intra=0 / bframes=2 / b_pyramid=0 / b_adapt=1 / b_bias=0 / direct=1 / weightb=1 / open_gop=0 / weightp=0 / keyint=24 / keyint_min=13 / scenecut=40 / intra_refresh=0 / rc=2pass / mbtree=0 / bitrate=5064 / ratetol=1.0 / qcomp=0.60 / qpmin=0 / qpmax=69 / qpstep=4 / cplxblur=20.0 / qblur=0.5 / ip_ratio=1.40 / pb_ratio=1.30 / aq=1:1.00
Language : Spanish
Default : Yes
Forced : No
Color primaries : BT.709
Transfer characteristics : BT.709
Matrix coefficients : BT.709

Audio #1
ID : 2
Format : AC-3
Format/Info : Audio Coding 3
Mode extension : CM (complete main)
Format settings, Endianness : Big
Codec ID : A_AC3
Duration : 1h 21mn
Bit rate mode : Constant
Bit rate : 448 Kbps
Channel(s) : 6 channels
Channel positions : Front: L C R, Side: L R, LFE
Sampling rate : 48.0 KHz
Bit depth : 16 bits
Compression mode : Lossy
Stream size : 261 MiB (8%)
Language : Spanish
Default : Yes
Forced : Yes

Audio #2
ID : 3
Format : AC-3
Format/Info : Audio Coding 3
Mode extension : CM (complete main)
Format settings, Endianness : Big
Codec ID : A_AC3
Duration : 1h 21mn
Bit rate mode : Constant
Bit rate : 448 Kbps
Channel(s) : 6 channels
Channel positions : Front: L C R, Side: L R, LFE
Sampling rate : 48.0 KHz
Bit depth : 16 bits
Compression mode : Lossy
Stream size : 261 MiB (8%)
Language : French
Default : No
Forced : No

Text
ID : 4
Format : VobSub
Muxing mode : zlib
Codec ID : S_VOBSUB
Codec ID/Info : The same subtitle format used on DVDs
Title : Completos.
Language : Spanish
Default : No
Forced : No[/spoiler]












1 Link



Código:
http://uploaded.net/file/rbpw134s/R33ncu4m0r.BDR.m1080p.flash.rar

Links Por Partes



Código:
http://uploaded.net/file/2gj4m6l2/R33ncu4m0r.BDR.m1080p-flash.part1.rar
http://uploaded.net/file/30pybw6i/R33ncu4m0r.BDR.m1080p-flash.part2.rar
http://uploaded.net/file/qh477xsa/R33ncu4m0r.BDR.m1080p-flash.part3.rar
http://uploaded.net/file/up3xrx16/R33ncu4m0r.BDR.m1080p-flash.part4.rar
http://uploaded.net/file/ky32qkx3/R33ncu4m0r.BDR.m1080p-flash.part5.rar

Mixto - Uptobox, 1Fichier (Uploaded 100 MB Aproximadamente)




Código:
http://uptobox.com/dnl2vm7x4byv
http://uptobox.com/weh4bsusue8f
http://uptobox.com/afemrhvtb4q4
http://uptobox.com/134o9oohnk92
http://uploaded.net/file/ky32qkx3/R33ncu4m0r.BDR.m1080p-flash.part5.rar




Código:
https://1fichier.com/?6b4d7d1bhh
https://1fichier.com/?tmbr9q5mtv
https://1fichier.com/?asffmu8yuh
https://1fichier.com/?5ha8dpg4hp
http://uploaded.net/file/ky32qkx3/R33ncu4m0r.BDR.m1080p-flash.part5.rar