Adaptación de una novela de Matt Bondurant que se inspiró en hechos reales protagonizados por su propia familia. Narra las peripecias de una banda que traficaba con whisky casero cuando aún estaba vigente en Estados Unidos la Ley Seca (1920 a 1933).




Título: Lawless (Sin ley)
Título original: Lawless
País: USA
Estreno en USA: 31/08/2012
Estreno en España:
Lanzamiento en DVD (alquiler): 03/12/2014
Estreno en Blu-ray: 20/01/2015
Lanzamiento en HD-DVD: 11/12/2014
Productora: Millennium Films, Nu Image
Director: John Hillcoat
Guión: Nick Cave
Reparto: Shia LaBeouf, Tom Hardy, Jessica Chastain, Guy Pearce, Gary Oldman, Mia Wasikowska, Jason Clarke
Género: Thriller. Drama | Neo-noir. Años 30. Gran Depresión. Basado en hechos reales


Formato: Matroska BDRip Micro 1080p
Tamaño: 4.77 GiB
Resolución: 1920x800
Audio 1: DTS 756 Kbps Castellano
Audio 2: AC3 5.1 448 Kbps Castellano
Audio 3: AC3 5.1 448 Kbps Ingles
Subs: Español de España e Ingles. Español de España Forzados.
Descomprimir: WinRar

MEDIA INFO

[spoiler]General

Format : Matroska
Format version : Version 4 / Version 2
File size : 4.77 GiB
Duration : 1h 56mn
Overall bit rate : 5 887 Kbps
Encoded date : UTC 2014-12-01 22:17:32
Writing application : mkvmerge v6.5.0 ('Isn't she lovely') built on Oct 20 2013 12:50:05
Writing library : libebml v1.3.0 + libmatroska v1.4.1

Video
ID : 1
Format : AVC
Format/Info : Advanced Video Codec
Format profile : High@L4.1
Format settings, CABAC : Yes
Format settings, ReFrames : 2 frames
Codec ID : V_MPEG4/ISO/AVC
Duration : 1h 56mn
Bit rate : 4 119 Kbps
Nominal bit rate : 4 400 Kbps
Width : 1 920 pixels
Height : 800 pixels
Display aspect ratio : 2.40:1
Frame rate mode : Constant
Frame rate : 24.000 fps
Color space : YUV
Chroma subsampling : 4:2:0
Bit depth : 8 bits
Scan type : Progressive
Bits/(Pixel*Frame) : 0.112
Stream size : 3.34 GiB (70%)
Writing library : x264 core 142
Encoding settings : cabac=1 / ref=1 / deblock=1:-1:-1 / analyse=0x3:0 / me=hex / subme=5 / psy=0 / mixed_ref=0 / me_range=16 / chroma_me=1 / trellis=0 / 8x8dct=1 / cqm=0 / deadzone=21,11 / fast_pskip=1 / chroma_qp_offset=0 / threads=8 / lookahead_threads=2 / sliced_threads=0 / nr=0 / decimate=1 / interlaced=0 / bluray_compat=0 / constrained_intra=0 / bframes=2 / b_pyramid=0 / b_adapt=1 / b_bias=0 / direct=1 / weightb=1 / open_gop=0 / weightp=0 / keyint=24 / keyint_min=13 / scenecut=40 / intra_refresh=0 / rc=abr / mbtree=0 / bitrate=4400 / ratetol=1.0 / qcomp=0.60 / qpmin=0 / qpmax=69 / qpstep=4 / ip_ratio=1.40 / pb_ratio=1.30 / aq=1:1.00
Default : Yes
Forced : No
Color primaries : BT.709
Transfer characteristics : BT.709
Matrix coefficients : BT.709

Audio #1
ID : 2
Format : DTS
Format/Info : Digital Theater Systems
Mode : 16
Format settings, Endianness : Big
Codec ID : A_DTS
Duration : 1h 56mn
Bit rate mode : Constant
Bit rate : 755 Kbps
Channel count : 6 channels
Channel positions : Front: L C R, Side: L R, LFE
Sampling rate : 48.0 KHz
Bit depth : 24 bits
Compression mode : Lossy
Delay relative to video : 26s 800ms
Stream size : 627 MiB (13%)
Language : Spanish
Default : Yes
Forced : Yes

Audio #2
ID : 3
Format : AC-3
Format/Info : Audio Coding 3
Mode extension : CM (complete main)
Format settings, Endianness : Big
Codec ID : A_AC3
Duration : 1h 56mn
Bit rate mode : Constant
Bit rate : 448 Kbps
Channel count : 6 channels
Channel positions : Front: L C R, Side: L R, LFE
Sampling rate : 48.0 KHz
Bit depth : 16 bits
Compression mode : Lossy
Stream size : 372 MiB (8%)
Language : Spanish
Default : No
Forced : No

Audio #3
ID : 4
Format : AC-3
Format/Info : Audio Coding 3
Mode extension : CM (complete main)
Format settings, Endianness : Big
Codec ID : A_AC3
Duration : 1h 56mn
Bit rate mode : Constant
Bit rate : 448 Kbps
Channel count : 6 channels
Channel positions : Front: L C R, Side: L R, LFE
Sampling rate : 48.0 KHz
Bit depth : 16 bits
Compression mode : Lossy
Stream size : 372 MiB (8%)
Language : English
Default : No
Forced : No

Text #1
ID : 5
Format : UTF-8
Codec ID : S_TEXT/UTF8
Codec ID/Info : UTF-8 Plain Text
Language : Spanish
Default : Yes
Forced : Yes

Text #2
ID : 6
Format : UTF-8
Codec ID : S_TEXT/UTF8
Codec ID/Info : UTF-8 Plain Text
Language : Spanish
Default : No
Forced : No

Text #3
ID : 7
Format : UTF-8
Codec ID : S_TEXT/UTF8
Codec ID/Info : UTF-8 Plain Text
Language : English
Default : No
Forced : No

Menu
00:00:00.000 : en:00:00:00.000
00:04:36.818 : en:00:04:36.818
00:09:16.639 : en:00:09:16.639
00:14:39.587 : en:00:14:39.587
00:21:55.689 : en:00:21:55.689
00:26:34.343 : en:00:26:34.343
00:34:23.895 : en:00:34:23.895
00:41:06.964 : en:00:41:06.964
00:48:30.825 : en:00:48:30.825
00:56:45.652 : en:00:56:45.652
01:05:11.074 : en:01:05:11.074
01:11:21.903 : en:01:11:21.903
01:19:30.724 : en:01:19:30.724
01:25:00.887 : en:01:25:00.887
01:31:49.838 : en:01:31:49.838
01:37:32.889 : en:01:37:32.889
01:44:44.737 : en:01:44:44.737
01:49:07.708 : en:01:49:07.708[/spoiler]













1 Link



Código:
http://uploaded.net/file/1pbauxgd/S1n.L3y.BDR.m1080.flash.rar

Links Por Partes



Código:
http://uploaded.net/file/steetsn0/S1n.L3y.BDR.m1080-flash.part1.rar
http://uploaded.net/file/ovk32p82/S1n.L3y.BDR.m1080-flash.part2.rar
http://uploaded.net/file/j4o29pyg/S1n.L3y.BDR.m1080-flash.part3.rar
http://uploaded.net/file/jh0vktel/S1n.L3y.BDR.m1080-flash.part4.rar
http://uploaded.net/file/a18fjfv2/S1n.L3y.BDR.m1080-flash.part5.rar
http://uploaded.net/file/nznslemq/S1n.L3y.BDR.m1080-flash.part6.rar

Mixto - Uptobox, 1Fichier (Uploaded 100 MB Aproximadamente)




Código:
http://uptobox.com/vfm7fm0ypvg3
http://uptobox.com/2nk9dodjby9g
http://uptobox.com/bvzghbrqmiii
http://uptobox.com/5pj8jonwbscs
http://uptobox.com/e0eyaxe7jyra
http://uploaded.net/file/nznslemq/S1n.L3y.BDR.m1080-flash.part6.rar




Código:
https://1fichier.com/?pnvo1syshs
https://1fichier.com/?z12i3wpc7f
https://1fichier.com/?ladlwzmc5b
https://1fichier.com/?ai07plctk7
https://1fichier.com/?gcalp6gxfg
http://uploaded.net/file/nznslemq/S1n.L3y.BDR.m1080-flash.part6.rar