Un profesor de filosofía ya retirado conoce a una joven parisina. Y, de pronto, sus vidas cambian.




Título original: Mr. Morgan's Last Love
Año: 2013
Duración: 115 min.
País: Alemania
Director: Sandra Nettelbeck
Guión: Sandra Nettelbeck (Novela: Françoise Dorner)
Música: Hans Zimmer
Fotografía: Michael Bertl
Reparto: Michael Caine, Gillian Anderson, Clémence Poésy, Justin Kirk, Jane Alexander, Richard Hope, Anne Alvaro
Productora: Coproducción Alemania-Bélgica-USA-Francia; Kaminski.Stiehm.Film GmbH / Bavaria Pictures / Senator Film / Scope Pictures / Sidney Kimmel Entertainment / Elzévir Films / SCOPE Invest
Género: Comedia. Drama

Formato: Matroska BDRip micro 720p
Tamaño: 3.02 GiB
Resolución: 1280x692
Audio 1: AC3 5.1 448 Kbps Castellano
Audio 2: AC3 5.1 448 kbps Inglés
Subs: Español de España e Ingles.
Descomprimir: WinRar

MEDIA INFO

[spoiler]Format : Matroska
Format version : Version 4 / Version 2
File size : 3.02 GiB
Duration : 1h 55mn
Overall bit rate : 3 727 Kbps
Encoded date : UTC 2014-12-02 11:50:27
Writing application : mkvmerge v6.5.0 ('Isn't she lovely') built on Oct 20 2013 12:50:05
Writing library : libebml v1.3.0 + libmatroska v1.4.1

Video
ID : 1
Format : AVC
Format/Info : Advanced Video Codec
Format profile : High@L4.1
Format settings, CABAC : Yes
Format settings, ReFrames : 2 frames
Codec ID : V_MPEG4/ISO/AVC
Duration : 1h 55mn
Bit rate : 2 846 Kbps
Width : 1 280 pixels
Height : 692 pixels
Display aspect ratio : 1.85:1
Frame rate mode : Constant
Frame rate : 23.976 fps
Color space : YUV
Chroma subsampling : 4:2:0
Bit depth : 8 bits
Scan type : Progressive
Bits/(Pixel*Frame) : 0.134
Stream size : 2.23 GiB (74%)
Writing library : x264 core 142
Encoding settings : cabac=1 / ref=1 / deblock=1:-1:-1 / analyse=0x3:0 / me=hex / subme=5 / psy=0 / mixed_ref=0 / me_range=16 / chroma_me=1 / trellis=0 / 8x8dct=1 / cqm=0 / deadzone=21,11 / fast_pskip=1 / chroma_qp_offset=0 / threads=8 / lookahead_threads=2 / sliced_threads=0 / nr=0 / decimate=1 / interlaced=0 / bluray_compat=0 / constrained_intra=0 / bframes=2 / b_pyramid=0 / b_adapt=1 / b_bias=0 / direct=1 / weightb=1 / open_gop=0 / weightp=0 / keyint=24 / keyint_min=13 / scenecut=40 / intra_refresh=0 / rc=abr / mbtree=0 / bitrate=2846 / ratetol=1.0 / qcomp=0.60 / qpmin=0 / qpmax=69 / qpstep=4 / ip_ratio=1.40 / pb_ratio=1.30 / aq=1:1.00
Default : Yes
Forced : No
Color primaries : BT.709
Transfer characteristics : BT.709
Matrix coefficients : BT.709

Audio #1
ID : 2
Format : AC-3
Format/Info : Audio Coding 3
Mode extension : CM (complete main)
Format settings, Endianness : Big
Codec ID : A_AC3
Duration : 1h 55mn
Bit rate mode : Constant
Bit rate : 448 Kbps
Channel(s) : 6 channels
Channel positions : Front: L C R, Side: L R, LFE
Sampling rate : 48.0 KHz
Bit depth : 16 bits
Compression mode : Lossy
Stream size : 371 MiB (12%)
Language : Spanish
Default : Yes
Forced : No

Audio #2
ID : 3
Format : AC-3
Format/Info : Audio Coding 3
Mode extension : CM (complete main)
Format settings, Endianness : Big
Codec ID : A_AC3
Duration : 1h 55mn
Bit rate mode : Constant
Bit rate : 448 Kbps
Channel(s) : 6 channels
Channel positions : Front: L C R, Side: L R, LFE
Sampling rate : 48.0 KHz
Bit depth : 16 bits
Compression mode : Lossy
Stream size : 371 MiB (12%)
Language : English
Default : No
Forced : No

Text #1
ID : 4
Format : UTF-8
Codec ID : S_TEXT/UTF8
Codec ID/Info : UTF-8 Plain Text
Language : Spanish
Default : No
Forced : No

Text #2
ID : 5
Format : UTF-8
Codec ID : S_TEXT/UTF8
Codec ID/Info : UTF-8 Plain Text
Language : English
Default : No
Forced : No

Menu
00:00:00.000 : en:00:00:00.000
00:11:01.286 : en:00:11:01.286
00:21:22.072 : en:00:21:22.072
00:32:51.970 : en:00:32:51.970
00:42:24.333 : en:00:42:24.333
00:52:02.536 : en:00:52:02.536
01:03:32.225 : en:01:03:32.225
01:13:45.755 : en:01:13:45.755
01:23:48.607 : en:01:23:48.607
01:33:59.050 : en:01:33:59.050
01:44:49.283 : en:01:44:49.283[/spoiler]












1 Link



Código:
http://uploaded.net/file/hggxcum4/MrM0rg4n.BDR.m720p.flash.rar

Links Por Partes



Código:
http://uploaded.net/file/zrkfj5xv/MrM0rg4n.BDR.m720p-flash.part1.rar
http://uploaded.net/file/4qti3spx/MrM0rg4n.BDR.m720p-flash.part2.rar
http://uploaded.net/file/wlp9i7pb/MrM0rg4n.BDR.m720p-flash.part3.rar
http://uploaded.net/file/0rxv9jv9/MrM0rg4n.BDR.m720p-flash.part4.rar
http://uploaded.net/file/s0t9zauw/MrM0rg4n.BDR.m720p-flash.part5.rar

Mixto - Uptobox, 1Fichier (Uploaded 100 MB Aproximadamente)




Código:
http://uptobox.com/ifb0a4taqikl
http://uptobox.com/32tx9q0aey4j
http://uptobox.com/dnx9tewk9cl4
http://uptobox.com/e131bttrk3v0
http://uploaded.net/file/s0t9zauw/MrM0rg4n.BDR.m720p-flash.part5.rar




Código:
https://1fichier.com/?20chgp3e3t
https://1fichier.com/?boupg758j9
https://1fichier.com/?gozby93og9
https://1fichier.com/?dxcvez0nwc
http://uploaded.net/file/s0t9zauw/MrM0rg4n.BDR.m720p-flash.part5.rar